[ Сегодня идет свободное скачивание без начисления Download ]


Статистика раздачи
Нет
 
   
 
Top  
 
 
-Одинокие сердца (2013) HDTVRip [H.264/1080p-LQ] (1-4 серии из 4)- Год выпуска: 2013
Производство: кинокомпания "УПС"
Жанр: Мелодрама
Субтитры: Отсутствуют

Дата российской премьеры:
30 декабря 2013
Режиссер: Сергей Комаров
Актеры: Ирина Пегова, Андрей Чернышов, Юлия Такшина, Владимир Симонов, Олег Иваница, Анастасия Касилова, Леся Самаева, Ахтем Сейтаблаев, Виталина Библив, Татьяна Агафонова и др.
Описание фильма:
Лизе Грушиной скоро 35. Она обладает уникальным даром: по фотографиям влюбленных может определять подходят ли они друг к другу, «услышав музыку их душ внутри себя». Но ее дар не всегда приносит положительные плоды. Сорокалетний мужчина, возмущенный тем, что Лиза не признала парой его и предполагаемую невесту, пытается выместить на ней свою злобу. Но сдерживает себя. На следующий день оказывается, что этот разъяренный дикарь — Артем Сычев — устроился мастером цеха на швейную фабрику, где работает Лиза. В тот же вечер он извиняется перед ней. Присматриваясь к этому замкнутому человеку, Лиза начинает проникаться к нему симпатией. Сычев тоже наблюдает за Лизой. Для него непонятна эта девушка с ее загадочным даром. А Лиза пытается подобрать ключ к этому человеку. Но прошлое Артема, о котором он не решается рассказать девушке, не позволяет Сычеву решиться на близкие отношения.
Продолжительность: 2 х ~01:30:00
Качество видео: HDTVRip [H.264/1080p-LQ]
Видеокодек: MPEG-4 AVC/H.264
Битрейт видео: ~6000 кбит/с
Размер кадра: 1920х1080
Аудиокодек: AC3 2.0
Битрейт аудио: 384 кбит/с

MediaInfo

Общее
Уникальный идентификатор                 : 168348648403719580577546155723716462494 (0x7EA6C532C2870C1E037BA147C20E879E)
Полное имя                               : E:\Закачки\Одинокие сердца\1-2 серии.mkv
Формат                                   : Matroska
Версия формата                           : Version 2
Размер файла                             : 4,13 Гбайт
Продолжительность                        : 1 ч. 29 м.
Общий поток                              : 6598 Кбит/сек
Программа кодирования                    : Lavf51.12.1
Библиотека кодирования                   : Lavf51.12.1
Видео
Идентификатор                            : 1
Формат                                   : AVC
Формат/Информация                        : Advanced Video Codec
Профиль формата                          : [url=mailto:Baseline@L4.0]Baseline@L4.0[/url]
Параметр CABAC формата                   : Нет
Параметр ReFrames формата                : 1 кадр
Параметр GOP формата                     : M=1, N=12
Идентификатор кодека                     : V_MPEG4/ISO/AVC
Продолжительность                        : 1 ч. 29 м.
Битрейт                                  : 6083 Кбит/сек
Ширина                                   : 1920 пикселей
Высота                                   : 1080 пикселей
Соотношение сторон                       : 16:9
Режим частоты кадров                     : Постоянный
Частота кадров                           : 25,000 кадров/сек
Цветовое пространство                    : YUV
Субдискретизация насыщенности            : 4:2:0
Битовая глубина                          : 8 бит
Тип развёртки                            : Прогрессивная
Бит/(Пиксели*Кадры)                      : 0.117
Размер потока                            : 3,81 Гбайт (92%)
Default                                  : Да
Forced                                   : Нет
Аудио
Идентификатор                            : 2
Формат                                   : AC-3
Формат/Информация                        : Audio Coding 3
Расширение режима                        : CM (complete main)
Параметр Endianness формата              : Big
Идентификатор кодека                     : A_AC3
Продолжительность                        : 1 ч. 29 м.
Вид битрейта                             : Постоянный
Битрейт                                  : 384 Кбит/сек
Каналы                                   : 2 канала
Расположение каналов                     : Front: L R
Частота                                  : 48,0 КГц
Битовая глубина                          : 16 бит
Метод сжатия                             : С потерями
Размер потока                            : 246 Мбайт (6%)
Default                                  : Да
Forced                                   : Нет
Скриншоты: Пожалуйста, не уходите с раздачи - помогите докачать другим.

[Цитировать]



Показать сообщения:    

Текущее время: 10-Дек 19:44

Часовой пояс: UTC + 3


Вы не можете начинать темы
Вы не можете отвечать на сообщения
Вы не можете редактировать свои сообщения
Вы не можете удалять свои сообщения
Вы не можете голосовать в опросах
Вы не можете прикреплять файлы к сообщениям
Вы не можете скачивать файлы

!ВНИМАНИЕ!
Сайт не предоставляет электронные версии произведений, а занимается лишь коллекционированием и каталогизацией ссылок, присылаемых и публикуемых на форуме нашими читателями. Если вы являетесь правообладателем какого-либо представленного материала и не желаете, чтобы ссылка на него находилась в нашем каталоге, свяжитесь с нами, и мы незамедлительно удалим ее. Файлы для обмена на трекере предоставлены пользователями сайта, и администрация не несет ответственности за их содержание. Просьба не заливать файлы, защищенные авторскими правами, а также файлы нелегального содержания!