[ Сегодня идет свободное скачивание без начисления Download ]


Статистика раздачи
Нет
 
   
 
Top  
 
 
-Need for Speed: Жажда скорости / Need for Speed (2014) BDRip [720p]- Год выпуска: 2014
Производство: США, Bandito Brothers, DreamWorks SKG, Electronic Arts, Reliance Entertainment
Жанр: Боевик, Триллер, Драма, Криминал
Перевод: Дублированный (Чистый звук)
Субтитры: Вшитые отключаемые
Язык субтитров: Английский
Дата мировой премьеры: 12 марта 2014
Дата российской премьеры: 13 марта 2014, «WDSSPR»
Дата выхода DVD релиза: 5 августа 2014, «Уолт Дисней Компани СНГ»
Дата выхода Blu-ray релиза: 5 августа 2014, «Уолт Дисней Компани СНГ»
Режиссер: Скотт Во
Продюсер: Джон Гэйтинс, Патрик О’Брайэн, Марк Суриан
Актеры: Дакота Джонсон, Скотт Мескади, Ник Чинланд, Майкл Китон, Рамон Родригес, Доминик Купер, Имоджен Путс, Рами Малек, Сэр Маджор, Аарон Пол
Описание фильма:
История Тоби Маршалла, гениального автомеханика, чьей единственной отдушиной является участие в подпольных гонках. Чтобы сохранить семейную мастерскую, Тоби вынужден взять в партнеры богатого и заносчивого бывшего гонщика NASCAR Дино Брюстера. Когда дела Тоби наконец-то начинают идти в гору, Дино подставляет партнера, и Тоби обвиняют в преступлении, которого он не совершал. Спустя два года Тоби выходит из тюрьмы с мыслью о мести. Чтобы достичь своей цели, ему придется совершить невозможное и доказать, что даже в мире броских суперкаров самый невзрачный гонщик может финишировать первым.

Рейтинг MPAA: PG-13
Возраст: 12+
Продолжительность: 02:10:42
Качество видео: BDRip [CHD]
Видеокодек: MPEG-4 AVC/H.264
Битрейт видео: 4520 kb/s
Размер кадра: 1280x536
Аудио #1: 48 kHz, AC3, 2/0 (L,R) ch, ~384 kbps avg (Русский) / Дубляж, Чистый
Аудио #2: 48 kHz, DTS, 3/2 (L,C,R,l,r) + LFE ch, ~1509 kbps avg (Английский) / Оригинал

MI

Общее
Уникальный идентификатор                 : 198577144453229209532681546646637931641 (0x9564911EDF8D330BB0192AF894266C79)
Полное имя                               : D:\Раздачи\Need.for.Speed.2014.BDRip.720p.NNM-CLUB.mkv
Формат                                   : Matroska
Версия формата                           : Version 2
Размер файла                             : 5,86 Гбайт
Продолжительность                        : 2 ч. 10 м.
Общий поток                              : 6414 Кбит/сек
Название фильма                          : Need.for.Speed.2014.BDRip.720p.NNM-CLUB
Дата кодирования                         : UTC 2014-07-14 21:16:39
Программа кодирования                    : mkvmerge v4.9.1 ('Ich will') сборка от Jul 11 2011 23:53:15
Библиотека кодирования                   : libebml v1.2.1 + libmatroska v1.1.1
Видео
Идентификатор                            : 1
Формат                                   : AVC
Формат/Информация                        : Advanced Video Codec
Профиль формата                          : [url=mailto:High@L4.1]High@L4.1[/url]
Параметр CABAC формата                   : Да
Параметр ReFrames формата                : 10 кадров
Идентификатор кодека                     : V_MPEG4/ISO/AVC
Продолжительность                        : 2 ч. 10 м.
Битрейт                                  : 4520 Кбит/сек
Ширина                                   : 1280 пикселей
Высота                                   : 536 пикселей
Соотношение сторон                       : 2,40:1
Режим частоты кадров                     : Постоянный
Частота кадров                           : 23,976 кадра/сек
Цветовое пространство                    : YUV
Субдискретизация насыщенности            : 4:2:0
Битовая глубина                          : 8 бит
Тип развёртки                            : Прогрессивная
Бит/(Пиксели*Кадры)                      : 0.275
Размер потока                            : 4,01 Гбайт (68%)
Заголовок                                : Need.for.Speed.2014.BDRip.720p.NNM-CLUB
Библиотека кодирования                   : x264 core 138 r2356 a1d3d17
Настройки программы                      : cabac=1 / ref=10 / deblock=1:-3:-3 / analyse=0x3:0x113 / me=umh / subme=10 / psy=1 / psy_rd=1.00:0.05 / mixed_ref=1 / me_range=32 / chroma_me=1 / trellis=2 / 8x8dct=1 / cqm=0 / deadzone=21,11 / fast_pskip=0 / chroma_qp_offset=-2 / threads=18 / lookahead_threads=1 / sliced_threads=0 / nr=0 / decimate=1 / interlaced=0 / bluray_compat=0 / constrained_intra=0 / bframes=5 / b_pyramid=2 / b_adapt=2 / b_bias=0 / direct=3 / weightb=1 / open_gop=0 / weightp=2 / keyint=250 / keyint_min=23 / scenecut=40 / intra_refresh=0 / rc=2pass / mbtree=0 / bitrate=4520 / ratetol=1.0 / qcomp=0.70 / qpmin=0 / qpmax=69 / qpstep=4 / cplxblur=20.0 / qblur=0.5 / ip_ratio=1.40 / pb_ratio=1.30 / aq=2:0.90
Язык                                     : English
Default                                  : Да
Forced                                   : Нет
Аудио #1
Идентификатор                            : 2
Формат                                   : AC-3
Формат/Информация                        : Audio Coding 3
Расширение режима                        : CM (complete main)
Параметр Endianness формата              : Big
Идентификатор кодека                     : A_AC3
Продолжительность                        : 2 ч. 10 м.
Вид битрейта                             : Постоянный
Битрейт                                  : 384 Кбит/сек
Каналы                                   : 2 канала
Расположение каналов                     : Front: L R
Частота                                  : 48,0 КГц
Битовая глубина                          : 16 бит
Метод сжатия                             : С потерями
Размер потока                            : 359 Мбайт (6%)
Заголовок                                : Line
Язык                                     : Russian
Default                                  : Нет
Forced                                   : Нет
Аудио #2
Идентификатор                            : 3
Формат                                   : DTS
Формат/Информация                        : Digital Theater Systems
Режим                                    : 16
Параметр Endianness формата              : Big
Идентификатор кодека                     : A_DTS
Продолжительность                        : 2 ч. 10 м.
Вид битрейта                             : Постоянный
Битрейт                                  : 1509 Кбит/сек
Каналы                                   : 6 каналов
Расположение каналов                     : Front: L C R, Side: L R, LFE
Частота                                  : 48,0 КГц
Битовая глубина                          : 24 бит
Метод сжатия                             : С потерями
Размер потока                            : 1,38 Гбайт (24%)
Заголовок                                : dts-core 1536k eng
Язык                                     : English
Default                                  : Нет
Forced                                   : Нет
Текст
Идентификатор                            : 4
Формат                                   : UTF-8
Идентификатор кодека                     : S_TEXT/UTF8
Идентификатор кодека/Информация          : UTF-8 Plain Text
Язык                                     : English
Default                                  : Нет
Forced                                   : Нет
Меню
00:00:00.000                             : en:00:00:00.000
00:03:54.734                             : en:00:03:54.734
00:07:49.761                             : en:00:07:49.761
00:14:28.034                             : en:00:14:28.034
00:20:43.534                             : en:00:20:43.534
00:26:18.160                             : en:00:26:18.160
00:28:45.974                             : en:00:28:45.974
00:37:46.473                             : en:00:37:46.473
00:42:07.608                             : en:00:42:07.608
00:50:33.614                             : en:00:50:33.614
00:56:00.482                             : en:00:56:00.482
01:05:09.864                             : en:01:05:09.864
01:12:09.325                             : en:01:12:09.325
01:18:21.030                             : en:01:18:21.030
01:25:07.144                             : en:01:25:07.144
01:32:55.653                             : en:01:32:55.653
01:36:38.084                             : en:01:36:38.084
01:39:49.442                             : en:01:39:49.442
01:49:47.873                             : en:01:49:47.873
01:55:41.685                             : en:01:55:41.685
02:02:22.752                             : en:02:02:22.752
Скриншоты: Время раздачи: 24/7,
до 5 скачавших.

[Цитировать]



Показать сообщения:    

Текущее время: 20-Фев 09:32

Часовой пояс: UTC + 3


Вы не можете начинать темы
Вы не можете отвечать на сообщения
Вы не можете редактировать свои сообщения
Вы не можете удалять свои сообщения
Вы не можете голосовать в опросах
Вы не можете прикреплять файлы к сообщениям
Вы не можете скачивать файлы

!ВНИМАНИЕ!
Сайт не предоставляет электронные версии произведений, а занимается лишь коллекционированием и каталогизацией ссылок, присылаемых и публикуемых на форуме нашими читателями. Если вы являетесь правообладателем какого-либо представленного материала и не желаете, чтобы ссылка на него находилась в нашем каталоге, свяжитесь с нами, и мы незамедлительно удалим ее. Файлы для обмена на трекере предоставлены пользователями сайта, и администрация не несет ответственности за их содержание. Просьба не заливать файлы, защищенные авторскими правами, а также файлы нелегального содержания!