[ Сегодня идет свободное скачивание без начисления Download ]


Статистика раздачи
Нет
 
   
 
Top  
 
 
-Need for Speed: Жажда скорости / Need for Speed (2014) BDRemux
«Тормоза придумал трус»
- Год выпуска: 2014
Производство: США, Филиппины, Ирландия, Великобритания
Жанр: Боевик, триллер, драма, криминал
Описание фильма:
История Тоби Маршалла, гениального автомеханика, чьей единственной отдушиной является участие в подпольных гонках. Чтобы сохранить семейную мастерскую, Тоби вынужден взять в партнеры богатого и заносчивого бывшего гонщика NASCAR Дино Брюстера. Когда дела Тоби наконец-то начинают идти в гору, Дино подставляет партнера, и Тоби обвиняют в преступлении, которого он не совершал. Спустя два года Тоби выходит из тюрьмы с мыслью о мести. Чтобы достичь своей цели, ему придется совершить невозможное и доказать, что даже в мире броских суперкаров самый невзрачный гонщик может финишировать первым.
Режиссер: Скотт Во / Scott Waugh
Продюсер: Джон Гэйтинс, Патрик О’Брайэн, Марк Суриан
Актеры: Аарон Пол, Доминик Купер, Имоджен Путс, Дакота Джонсон, Майкл Китон, Рамон Родригес, Ник Чинланд, Скотт Мескади, Рами Малек, Харрисон Джилбертсон
Язык: Русский, английский
Перевод: Дублированный [чистый звук]
Вид субтитров: Вшитые отключаемые
Язык субтитров: Английский

Дата мировой премьеры: 12 марта 2014
Дата российской премьеры: 13 марта 2014, «WDSSPR»
Дата выхода DVD релиза: 5 августа 2014, «Уолт Дисней Компани СНГ»
Дата выхода Blu-ray релиза: 5 августа 2014, «Уолт Дисней Компани СНГ»
Рейтинг MPAA: PG-13
Возраст: 12+
Продолжительность: 02:10:42
Качество видео: BDRemux
Видео: MPEG-4 AVC/H.264, 1920x1080, ~29488 kbps, 0.609 bit/pixel, 23.976 fps
Аудио 1: AC3 2.0, 384 kbps, 48 KHz, 16-bit [Русский - дублированный «Line»]
Аудио 2: DTS 5.1, 1536 kbps, 48 KHz, 24-bit [Русский - дублированный «центр с line»] - отдельным файлом
Аудио 3: DTS-HD MA 7.1, 5228 kbps, 48 KHz, 24-bit [Английский - оригинал]
Аудио 4: AC3 2.0, 192 kbps, 48 KHz, 16-bit [Английский - комментарий]

x264 log

x264 [info]: frame I:1813 Avg QP:15.11 size:294943
x264 [info]: frame P:54727 Avg QP:17.67 size: 88759
x264 [info]: frame B:131495 Avg QP:19.64 size: 36861

MediaInfo

Полное имя                               : D:\Need.for.Speed.Жажда.скорости-Need.for.Speed.(2014).BDRemux.[1080p].mkv
Формат                                   : Matroska
Версия формата                           : Version 2
Размер файла                             : 32,0 Гбайт
Продолжительность                        : 2 ч. 10 м.
Режим общего битрейта                    : Переменный
Общий поток                              : 35,0 Мбит/сек
Название фильма                          : Need for Speed (2014)
Дата кодирования                         : UTC 2014-07-14 21:06:51
Программа кодирования                    : mkvmerge v5.7.0 ('The Whirlwind') built on Aug  7 2012 14:11:40
Библиотека кодирования                   : libebml v1.2.3 + libmatroska v1.3.0
Attachment                               : Yes
Видео
Идентификатор                            : 1
Формат                                   : AVC
Формат/Информация                        : Advanced Video Codec
Профиль формата                          : [url=mailto:High@L4.1]High@L4.1[/url]
Параметр CABAC формата                   : Да
Параметр ReFrames формата                : 4 кадра
Идентификатор кодека                     : V_MPEG4/ISO/AVC
Продолжительность                        : 2 ч. 10 м.
Вид битрейта                             : Переменный
Битрейт                                  : 30,3 Мбит/сек
Максимальный битрейт                     : 32,0 Мбит/сек
Ширина                                   : 1920 пикселей
Высота                                   : 1080 пикселей
Соотношение сторон                       : 16:9
Режим частоты кадров                     : Постоянный
Частота кадров                           : 23,976 кадра/сек
Цветовое пространство                    : YUV
Субдискретизация насыщенности            : 4:2:0
Битовая глубина                          : 8 бит
Тип развёртки                            : Прогрессивная
Бит/(Пиксели*Кадры)                      : 0.609
Размер потока                            : 27,6 Гбайт (86%)
Заголовок                                : Need.for.Speed.Жажда.скорости-Need.for.Speed.(2014).BDRemux.[1080p]
Язык                                     : English
Default                                  : Да
Forced                                   : Нет
Аудио #1
Идентификатор                            : 2
Формат                                   : AC-3
Формат/Информация                        : Audio Coding 3
Расширение режима                        : CM (complete main)
Параметр Endianness формата              : Big
Идентификатор кодека                     : A_AC3
Продолжительность                        : 2 ч. 10 м.
Вид битрейта                             : Постоянный
Битрейт                                  : 384 Кбит/сек
Каналы                                   : 2 канала
Расположение каналов                     : Front: L R
Частота                                  : 48,0 КГц
Битовая глубина                          : 16 бит
Метод сжатия                             : С потерями
Размер потока                            : 359 Мбайт (1%)
Заголовок                                : AC3 2.0 / 384 kbps / Dub
Язык                                     : Russian
Default                                  : Да
Forced                                   : Нет
Аудио #2
Идентификатор                            : 3
Формат                                   : DTS
Формат/Информация                        : Digital Theater Systems
Профиль формата                          : MA / Core
Идентификатор кодека                     : A_DTS
Продолжительность                        : 2 ч. 10 м.
Вид битрейта                             : Переменный
Битрейт                                  : 3469 Кбит/сек / 1510 Кбит/сек
Каналы                                   : 8 каналов / 6 каналов
Расположение каналов                     : Front: L C R, Side: L R, Back: L R, LFE / Front: L C R, Side: L R, LFE
Частота                                  : 48,0 КГц
Битовая глубина                          : 24 бит
Метод сжатия                             : Без потерь / Lossy
Заголовок                                : DTS-HD MA 7.1 / 5228 kbps / Original
Язык                                     : English
Default                                  : Нет
Forced                                   : Нет
Аудио #3
Идентификатор                            : 4
Формат                                   : AC-3
Формат/Информация                        : Audio Coding 3
Расширение режима                        : CM (complete main)
Параметр Endianness формата              : Big
Идентификатор кодека                     : A_AC3
Продолжительность                        : 2 ч. 10 м.
Вид битрейта                             : Постоянный
Битрейт                                  : 192 Кбит/сек
Каналы                                   : 2 канала
Расположение каналов                     : Front: L R
Частота                                  : 48,0 КГц
Битовая глубина                          : 16 бит
Метод сжатия                             : С потерями
Размер потока                            : 180 Мбайт (1%)
Заголовок                                : AC3 2.0 / 192 kbps / Commentary
Язык                                     : English
Default                                  : Нет
Forced                                   : Нет
Меню
00:00:00.000                             : en:Chapter 1
00:03:54.734                             : en:Chapter 2
00:07:49.760                             : en:Chapter 3
00:14:28.033                             : en:Chapter 4
00:20:43.533                             : en:Chapter 5
00:26:18.159                             : en:Chapter 6
00:28:45.974                             : en:Chapter 7
00:37:46.472                             : en:Chapter 8
00:42:07.608                             : en:Chapter 9
00:50:33.613                             : en:Chapter 10
00:56:00.482                             : en:Chapter 11
01:05:09.864                             : en:Chapter 12
01:12:09.325                             : en:Chapter 13
01:18:21.029                             : en:Chapter 14
01:25:07.143                             : en:Chapter 15
01:32:55.653                             : en:Chapter 16
01:36:38.083                             : en:Chapter 17
01:39:49.441                             : en:Chapter 18
01:49:47.872                             : en:Chapter 19
01:55:41.684                             : en:Chapter 20
02:02:22.752                             : en:Chapter 21
Полное имя                               : D:\Need.for.Speed.Жажда.скорости-Need.for.Speed.(2014).BDRemux.[1080p].Rus.dts
Формат                                   : DTS
Формат/Информация                        : Digital Theater Systems
Размер файла                             : 1,38 Гбайт
Продолжительность                        : 2 ч. 10 м.
Режим общего битрейта                    : Постоянный
Общий поток                              : 1510 Кбит/сек
Аудио
Формат                                   : DTS
Формат/Информация                        : Digital Theater Systems
Продолжительность                        : 2 ч. 10 м.
Вид битрейта                             : Постоянный
Битрейт                                  : 1510 Кбит/сек
Каналы                                   : 6 каналов
Расположение каналов                     : Front: L C R, Side: L R, LFE
Частота                                  : 48,0 КГц
Битовая глубина                          : 24 бит
Метод сжатия                             : С потерями
Размер потока                            : 1,38 Гбайт (100%)
Скриншоты:

Время раздачи: 24/7 (до 10 скачавших)

[Цитировать]



Показать сообщения:    

Текущее время: 10-Дек 09:59

Часовой пояс: UTC + 3


Вы не можете начинать темы
Вы не можете отвечать на сообщения
Вы не можете редактировать свои сообщения
Вы не можете удалять свои сообщения
Вы не можете голосовать в опросах
Вы не можете прикреплять файлы к сообщениям
Вы не можете скачивать файлы

!ВНИМАНИЕ!
Сайт не предоставляет электронные версии произведений, а занимается лишь коллекционированием и каталогизацией ссылок, присылаемых и публикуемых на форуме нашими читателями. Если вы являетесь правообладателем какого-либо представленного материала и не желаете, чтобы ссылка на него находилась в нашем каталоге, свяжитесь с нами, и мы незамедлительно удалим ее. Файлы для обмена на трекере предоставлены пользователями сайта, и администрация не несет ответственности за их содержание. Просьба не заливать файлы, защищенные авторскими правами, а также файлы нелегального содержания!