[ Сегодня идет свободное скачивание без начисления Download ]


Статистика раздачи
Нет
 
   
 
Top  
 
 
-Ной / Noah (2014) HDRip - Год выпуска: 2014
Производство: США, Disruption Entertainment, Paramount Pictures, Protozoa Pictures, Regency Enterprises
Жанр: Фэнтези, Приключения, Драма
Перевод: Дублированный (iTunes)
Субтитры: Отсутствуют
Дата мировой премьеры: 10 марта 2014
Дата российской премьеры: 27 марта 2014, «Централ Партнершип» 3D
Дата выхода DVD релиза: 15 августа 2014, «Новый Диск»
Режиссер: Даррен Аронофски
Продюсер: Даррен Аронофски, Скотт Франклин, Арнон Милчэн
Актеры: Кевин Дюран, Дженнифер Коннелли, Логан Лерман, Энтони Хопкинс, Марк Марголис, Ник Нолти, Рассел Кроу, Дуглас Бут, Рэй Уинстон, Эмма Уотсон
Описание фильма:
История отца, воина и спасителя Человечества и всего живого на Земле.

Рейтинг MPAA: PG-13
Возраст: 12+
Продолжительность: 02:17:53
Качество видео: HDRip
Видеокодек: XviD
Битрейт видео: 1349 kb/s
Размер кадра: 720x384
Аудио #1: 48 kHz, AC3 3/2 (L,C,R,l,r) + LFE ch, ~384 kbps (Русский) / Дубляж
Аудио #2: 48 kHz, AC3 3/2 (L,C,R,l,r) + LFE ch, ~384 kbps (Английский) / Оригинал

MI

Общее
Полное имя                               : D:\Раздачи\Noy.2014.D.HDRip.2.05GB.NNM-CLUB.avi
Формат                                   : AVI
Формат/Информация                        : Audio Video Interleave
Профиль формата                          : OpenDML
Настройки формата                        : rec
Размер файла                             : 2,05 Гбайт
Продолжительность                        : 2 ч. 17 м.
Общий поток                              : 2125 Кбит/сек
Программа кодирования                    : AVI-Mux GUI 1.17.8.3, Feb 16 201019:42:50
Видео
Идентификатор                            : 0
Формат                                   : MPEG-4 Visual
Профиль формата                          : Advanced [email protected]
Параметр BVOP формата                    : 2
Параметр QPel формата                    : Нет
Параметр GMC формата                     : Без точки перехода
Параметр матрицы формата                 : Default (MPEG)
Идентификатор кодека                     : XVID
Идентификатор кодека/Подсказка           : XviD
Продолжительность                        : 2 ч. 17 м.
Битрейт                                  : 1349 Кбит/сек
Ширина                                   : 720 пикселей
Высота                                   : 384 пикселя
Соотношение сторон                       : 1,85:1
Частота кадров                           : 23,976 кадра/сек
Цветовое пространство                    : YUV
Субдискретизация насыщенности            : 4:2:0
Битовая глубина                          : 8 бит
Тип развёртки                            : Прогрессивная
Метод сжатия                             : С потерями
Бит/(Пиксели*Кадры)                      : 0.204
Размер потока                            : 1,30 Гбайт (64%)
Библиотека кодирования                   : XviD 1.2.1 (UTC 2008-12-04)
Аудио #1
Идентификатор                            : 1
Формат                                   : AC-3
Формат/Информация                        : Audio Coding 3
Расширение режима                        : CM (complete main)
Параметр Endianness формата              : Big
Идентификатор кодека                     : 2000
Продолжительность                        : 2 ч. 17 м.
Вид битрейта                             : Постоянный
Битрейт                                  : 384 Кбит/сек
Каналы                                   : 6 каналов
Расположение каналов                     : Front: L C R, Side: L R, LFE
Частота                                  : 48,0 КГц
Битовая глубина                          : 16 бит
Метод сжатия                             : С потерями
Размер потока                            : 379 Мбайт (18%)
Выравнивание                             : Соединение по промежуткам
Продолжительность промежутка             : 64  мс. (1,53 видеокадра)
Время предзагрузки промежутка            : 192  мс.
Аудио #2
Идентификатор                            : 2
Формат                                   : AC-3
Формат/Информация                        : Audio Coding 3
Расширение режима                        : CM (complete main)
Параметр Endianness формата              : Big
Идентификатор кодека                     : 2000
Продолжительность                        : 2 ч. 17 м.
Вид битрейта                             : Постоянный
Битрейт                                  : 384 Кбит/сек
Каналы                                   : 6 каналов
Расположение каналов                     : Front: L C R, Side: L R, LFE
Частота                                  : 48,0 КГц
Битовая глубина                          : 16 бит
Метод сжатия                             : С потерями
Размер потока                            : 379 Мбайт (18%)
Выравнивание                             : Соединение по промежуткам
Продолжительность промежутка             : 64  мс. (1,53 видеокадра)
Время предзагрузки промежутка            : 192  мс.
Скриншоты: Время раздачи: 24/7,
до 5 скачавших.

[Цитировать]



Показать сообщения:    

Текущее время: 06-Дек 15:16

Часовой пояс: UTC + 3


Вы не можете начинать темы
Вы не можете отвечать на сообщения
Вы не можете редактировать свои сообщения
Вы не можете удалять свои сообщения
Вы не можете голосовать в опросах
Вы не можете прикреплять файлы к сообщениям
Вы не можете скачивать файлы

!ВНИМАНИЕ!
Сайт не предоставляет электронные версии произведений, а занимается лишь коллекционированием и каталогизацией ссылок, присылаемых и публикуемых на форуме нашими читателями. Если вы являетесь правообладателем какого-либо представленного материала и не желаете, чтобы ссылка на него находилась в нашем каталоге, свяжитесь с нами, и мы незамедлительно удалим ее. Файлы для обмена на трекере предоставлены пользователями сайта, и администрация не несет ответственности за их содержание. Просьба не заливать файлы, защищенные авторскими правами, а также файлы нелегального содержания!