[ Сегодня идет свободное скачивание без начисления Download ]


Статистика раздачи
Нет
 
   
 
Top  
 
 
-Need for Speed: Жажда скорости / Need for Speed (2014) BDRip
«Тормоза придумал трус»
- Год выпуска: 2014
Производство: США, Филиппины, Ирландия, Великобритания
Жанр: Боевик, триллер, драма, криминал
Описание фильма:
История Тоби Маршалла, гениального автомеханика, чьей единственной отдушиной является участие в подпольных гонках. Чтобы сохранить семейную мастерскую, Тоби вынужден взять в партнеры богатого и заносчивого бывшего гонщика NASCAR Дино Брюстера. Когда дела Тоби наконец-то начинают идти в гору, Дино подставляет партнера, и Тоби обвиняют в преступлении, которого он не совершал. Спустя два года Тоби выходит из тюрьмы с мыслью о мести. Чтобы достичь своей цели, ему придется совершить невозможное и доказать, что даже в мире броских суперкаров самый невзрачный гонщик может финишировать первым.
Режиссер: Скотт Во / Scott Waugh
Продюсер: Джон Гэйтинс, Патрик О’Брайэн, Марк Суриан
Актеры: Аарон Пол, Доминик Купер, Имоджен Путс, Дакота Джонсон, Майкл Китон, Рамон Родригес, Ник Чинланд, Скотт Мескади, Рами Малек, Харрисон Джилбертсон
Язык: Русский, английский
Перевод: Дублированный [лицензия]
Вид субтитров: Вшитые отключаемые
Язык субтитров: Русский (forced, full), английский

Дата мировой премьеры: 12 марта 2014
Дата российской премьеры: 13 марта 2014, «WDSSPR»
Дата выхода DVD релиза: 5 августа 2014, «Уолт Дисней Компани СНГ»
Дата выхода Blu-ray релиза: 5 августа 2014, «Уолт Дисней Компани СНГ»
Рейтинг MPAA: PG-13
Возраст: 12+
Продолжительность: 02:10:42
Качество видео: BDRip [CHD]
Видео: MPEG-4 AVC/H.264, 1920x804 (2.40:1), ~10450 kbps, 0.282 bit/pixel, 23.976 fps
Аудио 1: AC3 5.1, 640 kbps, 48 KHz, 16-bit [Русский - дублированный «Blu-ray 3D EUR»]
Аудио 2: DTS 5.1, 1536 kbps, 48 KHz, 24-bit [Английский - оригинал]
Аудио 3: AC3 2.0, 320 kbps, 48 KHz, 16-bit [Английский - Descriptive]
Аудио 4: AC3 2.0, 192 kbps, 48 KHz, 16-bit [Английский - Commentary]

x264 log

x264 [info]: frame I:1813 Avg QP:15.11 size:294943
x264 [info]: frame P:54727 Avg QP:17.67 size: 88759
x264 [info]: frame B:131495 Avg QP:19.64 size: 36861
Полное имя : D:\Need.for.Speed.Жажда.скорости-Need.for.Speed.(2014).BDRip.[1080p].mkv
Формат : Matroska
Версия формата : Version 2
Размер файла : 12,0 Гбайт
Продолжительность : 2 ч. 10 м.
Общий поток : 13,1 Мбит/сек
Название фильма : Need for Speed (2014)
Дата кодирования : UTC 2014-07-16 22:35:50
Программа кодирования : mkvmerge v5.7.0 ('The Whirlwind') built on Aug 7 2012 14:11:40
Библиотека кодирования : libebml v1.2.3 + libmatroska v1.3.0
Attachment : Yes
Видео
Идентификатор : 1
Формат : AVC
Формат/Информация : Advanced Video Codec
Профиль формата : [email protected]
Параметр CABAC формата : Да
Параметр ReFrames формата : 5 кадров
Идентификатор кодека : V_MPEG4/ISO/AVC
Продолжительность : 2 ч. 10 м.
Битрейт : 10,4 Мбит/сек
Ширина : 1920 пикселей
Высота : 804 пикселя
Соотношение сторон : 2,40:1
Режим частоты кадров : Постоянный
Частота кадров : 23,976 кадра/сек
Цветовое пространство : YUV
Субдискретизация насыщенности : 4:2:0
Битовая глубина : 8 бит
Тип развёртки : Прогрессивная
Бит/(Пиксели*Кадры) : 0.282
Размер потока : 9,30 Гбайт (78%)
Заголовок : Need.for.Speed.Жажда.скорости-Need.for.Speed.(2014).BDRip.[1080p]
Библиотека кодирования : x264 core 138 r2356 a1d3d17
Настройки программы : cabac=1 / ref=5 / deblock=1:-3:-3 / analyse=0x3:0x113 / me=umh / subme=10 / psy=1 / psy_rd=1.00:0.05 / mixed_ref=1 / me_range=32 / chroma_me=1 / trellis=2 / 8x8dct=1 / cqm=0 / deadzone=21,11 / fast_pskip=0 / chroma_qp_offset=-2 / threads=18 / lookahead_threads=1 / sliced_threads=0 / nr=0 / decimate=1 / interlaced=0 / bluray_compat=0 / constrained_intra=0 / bframes=5 / b_pyramid=2 / b_adapt=2 / b_bias=0 / direct=3 / weightb=1 / open_gop=0 / weightp=2 / keyint=250 / keyint_min=23 / scenecut=40 / intra_refresh=0 / rc=2pass / mbtree=0 / bitrate=10450 / ratetol=1.0 / qcomp=0.70 / qpmin=0 / qpmax=69 / qpstep=4 / cplxblur=20.0 / qblur=0.5 / ip_ratio=1.40 / pb_ratio=1.30 / aq=2:1.00
Язык : English
Default : Да
Forced : Нет
Аудио #1
Идентификатор : 2
Формат : AC-3
Формат/Информация : Audio Coding 3
Расширение режима : CM (complete main)
Параметр Endianness формата : Big
Идентификатор кодека : A_AC3
Продолжительность : 2 ч. 10 м.
Вид битрейта : Постоянный
Битрейт : 640 Кбит/сек
Каналы : 6 каналов
Расположение каналов : Front: L C R, Side: L R, LFE
Частота : 48,0 КГц
Битовая глубина : 16 бит
Метод сжатия : С потерями
Размер потока : 599 Мбайт (5%)
Заголовок : AC3 5.1 / 640 kbps / Dub (Blu-ray 3D EUR)
Язык : Russian
Default : Да
Forced : Нет
Аудио #2
Идентификатор : 3
Формат : DTS
Формат/Информация : Digital Theater Systems
Идентификатор кодека : A_DTS
Продолжительность : 2 ч. 10 м.
Вид битрейта : Постоянный
Битрейт : 1510 Кбит/сек
Каналы : 6 каналов
Расположение каналов : Front: L C R, Side: L R, LFE
Частота : 48,0 КГц
Битовая глубина : 24 бит
Метод сжатия : С потерями
Размер потока : 1,38 Гбайт (12%)
Заголовок : DTS 5.1 / 1536 kbps / Original
Язык : English
Default : Нет
Forced : Нет
Аудио #3
Идентификатор : 4
Формат : AC-3
Формат/Информация : Audio Coding 3
Профиль формата : Dolby Digital
Расширение режима : CM (complete main)
Параметр Endianness формата : Big
Идентификатор кодека : A_AC3
Продолжительность : 2 ч. 10 м.
Вид битрейта : Постоянный
Битрейт : 320 Кбит/сек
Каналы : 2 канала
Расположение каналов : Front: L R
Частота : 48,0 КГц
Битовая глубина : 16 бит
Метод сжатия : С потерями
Размер потока : 300 Мбайт (2%)
Заголовок : AC3 2.0 / 320 kbps / Descriptive
Язык : English
Default : Нет
Forced : Нет
Аудио #4
Идентификатор : 5
Формат : AC-3
Формат/Информация : Audio Coding 3
Расширение режима : CM (complete main)
Параметр Endianness формата : Big
Идентификатор кодека : A_AC3
Продолжительность : 2 ч. 10 м.
Вид битрейта : Постоянный
Битрейт : 192 Кбит/сек
Каналы : 2 канала
Расположение каналов : Front: L R
Частота : 48,0 КГц
Битовая глубина : 16 бит
Метод сжатия : С потерями
Размер потока : 180 Мбайт (1%)
Заголовок : AC3 2.0 / 192 kbps / Commentary with Director Scott Waugh and Aaron Paul
Язык : English
Default : Нет
Forced : Нет
Текст #1
Идентификатор : 6
Формат : UTF-8
Идентификатор кодека : S_TEXT/UTF8
Идентификатор кодека/Информация : UTF-8 Plain Text
Заголовок : Forced
Язык : Russian
Default : Да
Forced : Нет
Текст #2
Идентификатор : 7
Формат : UTF-8
Идентификатор кодека : S_TEXT/UTF8
Идентификатор кодека/Информация : UTF-8 Plain Text
Заголовок : Full
Язык : Russian
Default : Нет
Forced : Нет
Текст #3
Идентификатор : 8
Формат : UTF-8
Идентификатор кодека : S_TEXT/UTF8
Идентификатор кодека/Информация : UTF-8 Plain Text
Заголовок : Full
Язык : English
Default : Нет
Forced : Нет
Меню
00:00:00.000 : en:00:00:00.000
00:03:54.734 : en:00:03:54.734
00:07:49.761 : en:00:07:49.761
00:14:28.034 : en:00:14:28.034
00:20:43.534 : en:00:20:43.534
00:26:18.160 : en:00:26:18.160
00:28:45.974 : en:00:28:45.974
00:37:46.473 : en:00:37:46.473
00:42:07.608 : en:00:42:07.608
00:50:33.614 : en:00:50:33.614
00:56:00.482 : en:00:56:00.482
01:05:09.864 : en:01:05:09.864
01:12:09.325 : en:01:12:09.325
01:18:21.030 : en:01:18:21.030
01:25:07.144 : en:01:25:07.144
01:32:55.653 : en:01:32:55.653
01:36:38.084 : en:01:36:38.084
01:39:49.442 : en:01:39:49.442
01:49:47.873 : en:01:49:47.873
01:55:41.685 : en:01:55:41.685
02:02:22.752 : en:02:02:22.752Скриншоты:

[Цитировать]



Показать сообщения:    

Текущее время: 04-Дек 19:19

Часовой пояс: UTC + 3


Вы не можете начинать темы
Вы не можете отвечать на сообщения
Вы не можете редактировать свои сообщения
Вы не можете удалять свои сообщения
Вы не можете голосовать в опросах
Вы не можете прикреплять файлы к сообщениям
Вы не можете скачивать файлы

!ВНИМАНИЕ!
Сайт не предоставляет электронные версии произведений, а занимается лишь коллекционированием и каталогизацией ссылок, присылаемых и публикуемых на форуме нашими читателями. Если вы являетесь правообладателем какого-либо представленного материала и не желаете, чтобы ссылка на него находилась в нашем каталоге, свяжитесь с нами, и мы незамедлительно удалим ее. Файлы для обмена на трекере предоставлены пользователями сайта, и администрация не несет ответственности за их содержание. Просьба не заливать файлы, защищенные авторскими правами, а также файлы нелегального содержания!