[ Сегодня идет свободное скачивание без начисления Download ]


Статистика раздачи
Нет
 
   
 
Top  
 
 
-Джек Стронг / Jack Strong (2014) HDRip- Год выпуска: 2014
Производство: Польша
Жанр: боевик, драма, криминал, детектив, биография
Режиссер: Владислав Пасиковский
Продюсер: Сильвия Уилкос
Актеры: Марчин Дорочиньский, Майя Осташевска, Патрик Уилсон, Дмитрий Белов, Дагмара Доминчик, Олег Масленников, Кшиштоф Печиньский, Мирослав Бака, Збигнев Замаховский, Кшиштоф Глёбиш, Ирэниуш Чоп
Описание фильма:
Майор Рышард Куклинский готовит план военных учений стран-участниц Организации Варшавского договора. Он прекрасно понимает, что Советский Союз рассматривает возможность массированной атаки на Западную Европу и страны НАТО, которые, не имея достаточного количества обычных вооружений, будут вынуждены контратаковать с помощью ядерных ударов по его родной Польше ...
Перевод: Любительский одноголосый [Andi]
Субтитры: Отсутствуют

Дата мировой премьеры: 7 февраля 2014
Продолжительность: 02:07:43
Качество видео: HDRip
Видеокодек: XviD
Битрейт видео: ~1331 Кбит/с
Размер кадра: 720х304
Аудиокодек: AC3 2 ch
Битрейт аудио: 192 Кбит/с

MediaInfo:

Общее
Полное имя : C:\NNM\Джек Стронг\Dzhek strong 2014 HDRip.avi
Формат : AVI
Формат/Информация : Audio Video Interleave
Размер файла : 1,37 Гбайт
Продолжительность : 2 ч. 7 м.
Общий поток : 1532 Кбит/сек
Программа кодирования : VirtualDubMod 1.5.10.2 (build 2540/release)
Библиотека кодирования : VirtualDubMod build 2540/release
Видео
Идентификатор : 0
Формат : MPEG-4 Visual
Профиль формата : Advanced Simple@L5
Параметр BVOP формата : 2
Параметр QPel формата : Нет
Параметр GMC формата : Без точки перехода
Параметр матрицы формата : Default (H.263)
Идентификатор кодека : XVID
Идентификатор кодека/Подсказка : XviD
Продолжительность : 2 ч. 7 м.
Битрейт : 1331 Кбит/сек
Ширина : 720 пикселей
Высота : 304 пикселя
Соотношение сторон : 2,35:1
Частота кадров : 24,000 кадра/сек
Цветовое пространство : YUV
Субдискретизация насыщенности : 4:2:0
Битовая глубина : 8 бит
Тип развёртки : Прогрессивная
Метод сжатия : С потерями
Бит/(Пиксели*Кадры) : 0.253
Размер потока : 1,19 Гбайт (87%)
Библиотека кодирования : XviD 1.2.1 (UTC 2008-12-04)
Аудио
Идентификатор : 1
Формат : AC-3
Формат/Информация : Audio Coding 3
Расширение режима : CM (complete main)
Идентификатор кодека : 2000
Продолжительность : 2 ч. 7 м.
Вид битрейта : Постоянный
Битрейт : 192 Кбит/сек
Каналы : 2 канала
Расположение каналов : Front: L R
Частота : 48,0 КГц
Битовая глубина : 16 бит
Метод сжатия : С потерями
Размер потока : 175 Мбайт (13%)
Выравнивание : Разделение по промежуткам
Продолжительность промежутка : 42 мс. (1,00 видеокадр)
Время предзагрузки промежутка : 500 мс.
Скриншоты: Время раздачи: Круглосуточно до 10 скачавших

[Цитировать]



Показать сообщения:    

Текущее время: 10-Дек 17:44

Часовой пояс: UTC + 3


Вы не можете начинать темы
Вы не можете отвечать на сообщения
Вы не можете редактировать свои сообщения
Вы не можете удалять свои сообщения
Вы не можете голосовать в опросах
Вы не можете прикреплять файлы к сообщениям
Вы не можете скачивать файлы

!ВНИМАНИЕ!
Сайт не предоставляет электронные версии произведений, а занимается лишь коллекционированием и каталогизацией ссылок, присылаемых и публикуемых на форуме нашими читателями. Если вы являетесь правообладателем какого-либо представленного материала и не желаете, чтобы ссылка на него находилась в нашем каталоге, свяжитесь с нами, и мы незамедлительно удалим ее. Файлы для обмена на трекере предоставлены пользователями сайта, и администрация не несет ответственности за их содержание. Просьба не заливать файлы, защищенные авторскими правами, а также файлы нелегального содержания!