[ Сегодня идет свободное скачивание без начисления Download ]


Статистика раздачи
Нет
 
   
 
Top  
 
 
-Красиво украсть (Черные метки) / The Art of the Steal (2013) HDRip- Год выпуска: 2013
Производство: Канада, США, Weinstein Company, The, Sony Pictures, Entertainment One
Жанр: Комедия, Криминал
Режиссер: Джонатан Собол
Продюсер: Николас Табаррок, Леа Джаунземс, Марек Посивал
Актеры: Курт Рассел, Мэтт Диллон, Теренс Стэмп, Джей Барушель, Кэтрин Уинник, Крис Диамантополос, Кеннет Уэлш, Джейсон Джонс, Девон Бостик, Керин Двайер
Описание фильма:
Фильм рассказывает о байкере-сорвиголове, специализирующемся на краже произведений искусства. Он уже было собрался завязать с преступным прошлым, но все-таки не находит в себе силы отказаться от осуществления еще одной очень заманчивой кражи вместе со своим неблагонадежным братцем. Все в итоге идет наперекосяк, поскольку оказывается, что у каждого из братьев свой план.
Перевод: Многоголосый закадровый, профессиональный [iTunes]
Субтитры: Отсутствуют

Дата мировой премьеры: 11 сентября 2013
Дата выхода DVD/Blu-Ray релиза : 12 августа 2014, «Columbia/Sony»
Продолжительность: 01:30:15
Качество видео: HDRip
Видеокодек: Xvid
Битрейт видео: ~1776 Kbit/s
Размер кадра: 720x304
Аудиокодек: AC3, 2.0
Битрейт аудио: 384 Kbit/s
Сэмпл: Скачать

MediaInfo:

Общее
Полное имя : D:\Фильмы\Chernye.Metki.2014.P.HDRip.1400Mb.avi
Формат : AVI
Формат/Информация : Audio Video Interleave
Размер файла : 1,37 Гбайт
Продолжительность : 1 ч. 30 м.
Общий поток : 2169 Кбит/сек
Программа кодирования : VirtualDubMod 1.5.10.2 (build 2540/release)
Библиотека кодирования : VirtualDubMod build 2540/release
Видео
Идентификатор : 0
Формат : MPEG-4 Visual
Профиль формата : Advanced Simple@L5
Параметр BVOP формата : 2
Параметр QPel формата : Нет
Параметр GMC формата : Без точки перехода
Параметр матрицы формата : Выборочная
Идентификатор кодека : XVID
Идентификатор кодека/Подсказка : XviD
Продолжительность : 1 ч. 30 м.
Битрейт : 1776 Кбит/сек
Ширина : 720 пикселей
Высота : 304 пикселя
Соотношение сторон : 2,35:1
Частота кадров : 23,976 кадра/сек
Цветовое пространство : YUV
Субдискретизация насыщенности : 4:2:0
Битовая глубина : 8 бит
Тип развёртки : Прогрессивная
Метод сжатия : С потерями
Бит/(Пиксели*Кадры) : 0.338
Размер потока : 1,12 Гбайт (82%)
Библиотека кодирования : XviD 1.2.1 (UTC 2008-12-04)
Аудио
Идентификатор : 1
Формат : AC-3
Формат/Информация : Audio Coding 3
Расширение режима : CM (complete main)
Параметр Endianness формата : Big
Идентификатор кодека : 2000
Продолжительность : 1 ч. 30 м.
Вид битрейта : Постоянный
Битрейт : 384 Кбит/сек
Каналы : 2 канала
Расположение каналов : Front: L R
Частота : 48,0 КГц
Битовая глубина : 16 бит
Метод сжатия : С потерями
Размер потока : 248 Мбайт (18%)
Выравнивание : Разделение по промежуткам
Продолжительность промежутка : 42 мс. (1,00 видеокадр)
Время предзагрузки промежутка : 500 мс.
Скриншоты:
Время раздачи: 24/7
(до 5 скачавших)

[Цитировать]



Показать сообщения:    

Текущее время: 09-Дек 08:50

Часовой пояс: UTC + 3


Вы не можете начинать темы
Вы не можете отвечать на сообщения
Вы не можете редактировать свои сообщения
Вы не можете удалять свои сообщения
Вы не можете голосовать в опросах
Вы не можете прикреплять файлы к сообщениям
Вы не можете скачивать файлы

!ВНИМАНИЕ!
Сайт не предоставляет электронные версии произведений, а занимается лишь коллекционированием и каталогизацией ссылок, присылаемых и публикуемых на форуме нашими читателями. Если вы являетесь правообладателем какого-либо представленного материала и не желаете, чтобы ссылка на него находилась в нашем каталоге, свяжитесь с нами, и мы незамедлительно удалим ее. Файлы для обмена на трекере предоставлены пользователями сайта, и администрация не несет ответственности за их содержание. Просьба не заливать файлы, защищенные авторскими правами, а также файлы нелегального содержания!