[ Сегодня идет свободное скачивание без начисления Download ]


Статистика раздачи
Нет
 
   
 
Top  
 
 
-Другая женщина / The Other Woman (2014) BDRip [720p]- Год выпуска: 2014
Производство: США, 20th Century Fox Film Corporation, LBI Productions
Жанр: Мелодрама, Комедия
Перевод: Дублированный (iTunes)
Субтитры: Отсутствуют
Режиссер: Ник Кассаветис
Продюсер: Джули Силверман, Магай Дж.Б. Коэн, Дональд Дж. Ли мл.
Актеры: Кэмерон Диаз, Лесли Манн, Кейт Аптон, Николай Костер-Вальдау, Дон Джонсон, Тейлор Кинни, Ники Минаж, Дэвид Торнтон, Виктор Круз, Оливия Калпо
Описание фильма:
Любовная связь с женатым мужчиной — это, конечно, не лучший вариант, но вполне допустимый. Гораздо хуже, если у него помимо тебя ещё несколько любовниц. Будучи не в силах смириться с таким положением дел, обманутая женщина жаждет крови и вынашивает план мести. Ради достижения своей цели она объединяется с женой изменника, и этот союз униженных и оскорблённых оказывается для казановы пострашнее атомной войны.

Дата мировой премьеры: 1 апреля 2014
Дата российской премьеры: 1 мая 2014, «Двадцатый Век Фокс СНГ»
Дата выхода DVD релиза: 11 сентября 2014, «Двадцатый Век Фокс СНГ»
Дата выхода Blu-ray релиза: 11 сентября 2014, «Двадцатый Век Фокс СНГ»
Продолжительность: 01:49:07
Качество видео: BDRip [720p]
Видеокодек: MPEG-4 AVC/H.264
Битрейт видео: ~6600 Kbps
Размер кадра: 1280x534
Аудио #1: Русский: AC3, 48.0 KHz, 6 ch, 384 Kbps, CBR
Аудио #2: Английский: DTS, 48.0 KHz, 6 ch, 1510 Kbps, CBR
Сэмпл: Скачать

MediaInfo:

Общее
Уникальный идентификатор : 218063809911018779535718431164427645126 (0xA40D8FE7B7B38059B04B71B2DC23B0C6)
Полное имя : E:\Фильмы\Drugaya.Jenschina.2014.BDRip.720p.mkv
Формат : Matroska
Версия формата : Version 4 / Version 2
Размер файла : 6,47 Гбайт
Продолжительность : 1 ч. 49 м.
Общий поток : 8491 Кбит/сек
Дата кодирования : UTC 2014-07-17 21:40:13
Программа кодирования : mkvmerge v7.0.0 ('Where We Going') 64bit built on Jun 9 2014 15:16:27
Библиотека кодирования : libebml v1.3.0 + libmatroska v1.4.1
DURATION : 01:49:07.425000000
NUMBER_OF_FRAMES : 613821
NUMBER_OF_BYTES : 1235009488
_STATISTICS_WRITING_APP : mkvmerge v7.0.0 ('Where We Going') 64bit built on Jun 9 2014 15:16:27
_STATISTICS_WRITING_DATE_UTC : 2014-07-17 21:40:13
_STATISTICS_TAGS : BPS DURATION NUMBER_OF_FRAMES NUMBER_OF_BYTES
Attachment : Yes
Видео
Идентификатор : 1
Формат : AVC
Формат/Информация : Advanced Video Codec
Профиль формата : High@L4.1
Параметр CABAC формата : Да
Параметр ReFrames формата : 12 кадров
Идентификатор кодека : V_MPEG4/ISO/AVC
Продолжительность : 1 ч. 49 м.
Битрейт : 6600 Кбит/сек
Ширина : 1280 пикселей
Высота : 534 пикселя
Соотношение сторон : 2,40:1
Режим частоты кадров : Постоянный
Частота кадров : 23,976 кадра/сек
Цветовое пространство : YUV
Субдискретизация насыщенности : 4:2:0
Битовая глубина : 8 бит
Тип развёртки : Прогрессивная
Бит/(Пиксели*Кадры) : 0.403
Размер потока : 4,90 Гбайт (76%)
Библиотека кодирования : x264 core 142 r2431+42 c69a006 tMod [8-bit@4:2:0 X86_64]
Настройки программы : cabac=1 / ref=12 / deblock=1:-3:-3 / analyse=0x3:0x113 / me=umh / subme=11 / psy=1 / fade_compensate=0.00 / psy_rd=1.10:0.05 / mixed_ref=1 / me_range=32 / chroma_me=1 / trellis=2 / 8x8dct=1 / cqm=0 / deadzone=21,11 / fast_pskip=0 / chroma_qp_offset=-3 / threads=18 / lookahead_threads=4 / sliced_threads=0 / nr=0 / decimate=0 / interlaced=0 / bluray_compat=0 / constrained_intra=0 / fgo=0 / bframes=10 / b_pyramid=2 / b_adapt=2 / b_bias=0 / direct=3 / weightb=1 / open_gop=0 / weightp=2 / keyint=240 / keyint_min=24 / scenecut=40 / intra_refresh=0 / rc_lookahead=40 / rc=2pass / mbtree=0 / bitrate=6600 / ratetol=1.0 / qcomp=0.70 / qpmin=0:0:0 / qpmax=69:69:69 / qpstep=4 / cplxblur=20.0 / qblur=0.5 / vbv_maxrate=40000 / vbv_bufsize=30000 / nal_hrd=none / filler=0 / ip_ratio=1.30 / pb_ratio=1.20 / aq=4:0.80 / aq-sensitivity=10.00 / aq-factor=1.00:1.00:1.00 / aq2=0 / aq3=0
Язык : English
Default : Да
Forced : Нет
DURATION : 01:49:07.416000000
NUMBER_OF_FRAMES : 156981
NUMBER_OF_BYTES : 5397937092
_STATISTICS_WRITING_APP : mkvmerge v7.0.0 ('Where We Going') 64bit built on Jun 9 2014 15:16:27
_STATISTICS_WRITING_DATE_UTC : 2014-07-17 21:40:13
_STATISTICS_TAGS : BPS DURATION NUMBER_OF_FRAMES NUMBER_OF_BYTES
Аудио #1
Идентификатор : 2
Формат : AC-3
Формат/Информация : Audio Coding 3
Расширение режима : CM (complete main)
Параметр Endianness формата : Big
Идентификатор кодека : A_AC3
Продолжительность : 1 ч. 49 м.
Вид битрейта : Постоянный
Битрейт : 384 Кбит/сек
Каналы : 6 каналов
Расположение каналов : Front: L C R, Side: L R, LFE
Частота : 48,0 КГц
Битовая глубина : 16 бит
Метод сжатия : С потерями
Размер потока : 300 Мбайт (5%)
Язык : Russian
Default : Да
Forced : Нет
Аудио #2
Идентификатор : 3
Формат : DTS
Формат/Информация : Digital Theater Systems
Режим : 16
Параметр Endianness формата : Big
Идентификатор кодека : A_DTS
Продолжительность : 1 ч. 49 м.
Вид битрейта : Постоянный
Битрейт : 1509 Кбит/сек
Каналы : 6 каналов
Расположение каналов : Front: L C R, Side: L R, LFE
Частота : 48,0 КГц
Битовая глубина : 24 бит
Метод сжатия : С потерями
Размер потока : 1,15 Гбайт (18%)
Язык : English
Default : Нет
Forced : Нет

Avdump:

File: E:\Фильмы\Drugaya.Jenschina.2014.BDRip.720p.mkv
Duration: 01:49:07 (6547.42)
Track #1: video
lang: Unknown (1)
codc: V_MPEG4/ISO/AVC -> H264/AVC (22)
reso: 1280x534 -> Unknown (aka not common)
fram: 23.976 fps
rate: 6596 kbps (6595.54)
dura: 01:49:07 (6547.37)
size: 5.03 GB (5397937092)
Track #2: audio
lang: rus -> Russian (15)
codc: A_AC3 -> AC3 (2)
chan: 6 -> 5.1 Surround
samp: 48000 Hz
rate: 384 kbps (384.04)
dura: 01:49:07 (6547.17)
size: 299.74 MB (314300462)
Track #3: audio
lang: Unknown (1)
codc: A_DTS -> DTS (13)
chan: 6 -> 5.1 Surround
samp: 48000 Hz
rate: 1509 kbps (1509.10)
dura: 01:49:07 (6547.40)
size: 1.15 GB (1235087782)
Sizes: (check sanity)
disk: 6.47 GB (6949650958)
atts: 233.50 KB (239101)
trac: 2.47 GB (2652358040) [based on track size]
bitr: 6.47 GB (6947329700) [based on bitrate]
tdif: 4.00 GB (4297053817) 61.83%
bdif: 1.99 MB (2082156) 0.02%
Скриншоты:
Время раздачи: 24/7
(до 5 скачавших)

[Цитировать]



Показать сообщения:    

Текущее время: 07-Дек 23:17

Часовой пояс: UTC + 3


Вы не можете начинать темы
Вы не можете отвечать на сообщения
Вы не можете редактировать свои сообщения
Вы не можете удалять свои сообщения
Вы не можете голосовать в опросах
Вы не можете прикреплять файлы к сообщениям
Вы не можете скачивать файлы

!ВНИМАНИЕ!
Сайт не предоставляет электронные версии произведений, а занимается лишь коллекционированием и каталогизацией ссылок, присылаемых и публикуемых на форуме нашими читателями. Если вы являетесь правообладателем какого-либо представленного материала и не желаете, чтобы ссылка на него находилась в нашем каталоге, свяжитесь с нами, и мы незамедлительно удалим ее. Файлы для обмена на трекере предоставлены пользователями сайта, и администрация не несет ответственности за их содержание. Просьба не заливать файлы, защищенные авторскими правами, а также файлы нелегального содержания!