[ Сегодня идет свободное скачивание без начисления Download ]


Статистика раздачи
Нет
 
   
 
Top  
 
 
-Принцесса и нищий / Il principe abusivo (2013) BDRip- Год выпуска: 2013
Производство: Италия - Cattleya
Жанр: Комедия
Режжисер: Алессандро Сиани / Alessandro Siani
Актеры: Алессандро Сиани, Кристиан Де Сика, Сара Фельбербаум, Серена Аутьери, Марко Мессери, Алан Капелли Гетц, Сальваторе Мистиконе, Нэлло Иорио, Августо Форнари
Описание фильма:
Что делать, если ты принцесса маленького европейского княжества, если твой отец увлечен только эротикой в интернете, а о тебе не пишет пресса, потому что ты занимаешься открытием ветеринарных лечебниц? Правильно! Устроить небольшой скандальчик! Или очень большой скандал! Принцесса по совету дворецкого находит самого никчемного жителя княжества, молодого балбеса Антонио и притворяется, что влюбилась в него! Они гуляют по улицам, ужинают в ресторане, а специально предупрежденные папарацци снимают их! Это скандал! Принцесса выходит замуж за нищего. Принцесса добилась своего, но что теперь делать с Антонио?
Перевод: Многоголосый закадровый, профессиональный
Субтитры: Вшитые отключаемые
Язык субтитров: Английский, итальянский

Дата мировой премьеры: 14 февраля 2013
Дата русской премьеры: 26 июня 2014, «Ракета Релизинг»
Продолжительность: 01:41:54
Качество видео: BDRip 1080p
Видеокодек: MPEG-4 AVC/H.264
Видео: 12.0 Мбит/с, 1920x816, 24 кадр/с
Аудио #1: Русский: AC3, 2.0, 192 Кбит/с, 48 kHz, 16 bit
Аудио #2: Итальянский: AC3, 5.1, 640 Кбит/с, 48 kHz, 16 bit
Аудио #3: Итальянский: DTS, 5.1, 1536 Кбит/с, 48 kHz, 24 bit

MediaInfo:

Общее
Уникальный идентификатор : 199425793371481900087525986109383200230 (0x960802BE2297EC9D8B6856AEED0F4DE6)
Полное имя : D:\Video\Il principe abusivo 2013.mkv
Формат : Matroska
Версия формата : Version 4 / Version 2
Размер файла : 10,2 Гбайт
Продолжительность : 1 ч. 41 м.
Общий поток : 14,4 Мбит/сек
Название фильма : Il principe abusivo (2013, Alessandro Siani)
Дата кодирования : UTC 2014-07-17 03:12:00
Программа кодирования : mkvmerge v6.1.0 ('Old Devil') built on Mar 4 2013 09:10:42
Библиотека кодирования : libebml v1.3.0 + libmatroska v1.4.0
Видео
Идентификатор : 1
Формат : AVC
Формат/Информация : Advanced Video Codec
Профиль формата : [email protected]
Параметр CABAC формата : Да
Параметр ReFrames формата : 5 кадров
Идентификатор кодека : V_MPEG4/ISO/AVC
Продолжительность : 1 ч. 41 м.
Битрейт : 12,0 Мбит/сек
Ширина : 1920 пикселей
Высота : 816 пикселей
Соотношение сторон : 2,35:1
Режим частоты кадров : Постоянный
Частота кадров : 24,000 кадра/сек
Цветовое пространство : YUV
Субдискретизация насыщенности : 4:2:0
Битовая глубина : 8 бит
Тип развёртки : Прогрессивная
Бит/(Пиксели*Кадры) : 0.320
Размер потока : 8,35 Гбайт (82%)
Заголовок : [email protected]
Библиотека кодирования : x264 core 130 r2273 b3065e6
Настройки программы : cabac=1 / ref=5 / deblock=1:0:0 / analyse=0x3:0x133 / me=umh / subme=10 / psy=1 / psy_rd=1.00:0.15 / mixed_ref=1 / me_range=32 / chroma_me=1 / trellis=2 / 8x8dct=1 / cqm=0 / deadzone=21,11 / fast_pskip=0 / chroma_qp_offset=-3 / threads=6 / lookahead_threads=1 / sliced_threads=0 / nr=0 / decimate=1 / interlaced=0 / bluray_compat=0 / constrained_intra=0 / bframes=3 / b_pyramid=2 / b_adapt=2 / b_bias=0 / direct=3 / weightb=1 / open_gop=0 / weightp=2 / keyint=240 / keyint_min=24 / scenecut=40 / intra_refresh=0 / rc=2pass / mbtree=0 / bitrate=12029 / ratetol=2.0 / qcomp=0.60 / qpmin=10 / qpmax=51 / qpstep=4 / cplxblur=20.0 / qblur=0.5 / ip_ratio=1.40 / pb_ratio=1.00 / aq=1:1.00
Язык : English
Default : Нет
Forced : Нет
Аудио #1
Идентификатор : 2
Формат : AC-3
Формат/Информация : Audio Coding 3
Расширение режима : CM (complete main)
Параметр Endianness формата : Big
Идентификатор кодека : A_AC3
Продолжительность : 1 ч. 41 м.
Вид битрейта : Постоянный
Битрейт : 192 Кбит/сек
Каналы : 2 канала
Расположение каналов : Front: L R
Частота : 48,0 КГц
Битовая глубина : 16 бит
Метод сжатия : С потерями
Размер потока : 140 Мбайт (1%)
Язык : Russian
Default : Да
Forced : Нет
Аудио #2
Идентификатор : 3
Формат : AC-3
Формат/Информация : Audio Coding 3
Расширение режима : CM (complete main)
Параметр Endianness формата : Big
Идентификатор кодека : A_AC3
Продолжительность : 1 ч. 41 м.
Вид битрейта : Постоянный
Битрейт : 640 Кбит/сек
Каналы : 6 каналов
Расположение каналов : Front: L C R, Side: L R, LFE
Частота : 48,0 КГц
Битовая глубина : 16 бит
Метод сжатия : С потерями
Задержка видео : 2 мс.
Размер потока : 466 Мбайт (4%)
Заголовок : Italiano AC3
Язык : Italian
Default : Нет
Forced : Нет
Аудио #3
Идентификатор : 4
Формат : DTS
Формат/Информация : Digital Theater Systems
Режим : 16
Параметр Endianness формата : Big
Идентификатор кодека : A_DTS
Продолжительность : 1 ч. 41 м.
Вид битрейта : Постоянный
Битрейт : 1509 Кбит/сек
Каналы : 6 каналов
Расположение каналов : Front: L C R, Side: L R, LFE
Частота : 48,0 КГц
Битовая глубина : 24 бит
Метод сжатия : С потерями
Задержка видео : 2 мс.
Размер потока : 1,07 Гбайт (11%)
Заголовок : Italiano DTS
Язык : Italian
Default : Нет
Forced : Нет
Текст #1
Идентификатор : 5
Формат : UTF-8
Идентификатор кодека : S_TEXT/UTF8
Идентификатор кодека/Информация : UTF-8 Plain Text
Заголовок : Italiano
Язык : Italian
Default : Да
Forced : Нет
Текст #2
Идентификатор : 6
Формат : UTF-8
Идентификатор кодека : S_TEXT/UTF8
Идентификатор кодека/Информация : UTF-8 Plain Text
Заголовок : Inglese
Язык : English
Default : Нет
Forced : Нет

Рецензия:

«Эксцессивный принц»: Любовь с препятствиями.
- What’s your work?
- I’m noble.
- What’s your working schedule?
Уроженец Неаполя Алессандро Сиани в написанные им сценарии вкладывает всю экспрессивность и темпераментность, присущую итальянцам. Не нарушая традиции, Сиани выполнил «Эксцессивного принца» в этой же манере, и сам встал у руля проекта, взяв на себя функции режиссера, а также исполнение главной роли. Решив использовать такую популярную в кинематографе тему, как романтические отношения межу неравными по социальному статусу партнерами, Алессандро, однако, если и использует банальные схемы, то облекает их таким большим количеством искрометного юмора, что далеко не новый сюжет становится совсем не скучным.
В маленьком европейском королевстве, где жизнь течет планомерно и неторопливо, жила-была принцесса Летиция, которая имела очень известных бабушку и маму (тут в фильме присутствуют некоторые намеки на Грейс Келли, да и наша героиня очень похожа на известную монаршую особу), да и сама хотела прославиться и попасть на обложки журналов. Подобное тщеславие привело к королевскому двору кудрявого молодого человека Антонио. Безработный малый Антонио перебивается тем, что принимает участие в тестировании лекарств (вокруг чего выстроено несколько скетчей, повествующих о побочных эффектах), а плотно обедает только в том случае, если кафетерии устраивают бесплатную раздачу еды. И его вполне устраивает это положение дел, при котором новую пару обуви он может «достать» у зазевавшегося посетителя боулинга.
Ни на секунду не воспринимая свою картину всерьез (чего только стоит почти мультипликационная птичка, влетающая в замок в самом начале фильма), Сиани заботится лишь о плотности шуток на одну единицу времени, и здесь он не только достигает поставленной цели развеселить зрителя, но и одаривает публику доброй и светлой историей. Первая половина ленты практически полностью состоит из небольших юмористических зарисовок, которые немного затрагивают жизнь аристократов в замке (например, король постоянно смотрит эротические фото на своем планшете), но большей частью посвящены «трудовым» будням Антонио.
У постановщика очень много идей, поэтому ему нет нужды повторять или же затягивать скетчи, как это зачастую делают голливудские кинематографисты средней руки. Прокатиться на машине скорой помощи вместо автобуса, заказать в дорогом ресторане бургеры и «побольше кетчупа и майонеза» и сделать множество других вещей, которые покажут, что Антонио просто невыносим, но в хорошем смысле этого слова. Последняя треть «Эксцессивного принца» немного сбавляет ритм, и переходит к созданию романтического настроения, играя на теме совместимости несовместимого. Но и здесь юмор не покидает экран, а лишь немного преображается и становится лишенным некоторой доли бурлеска, как и наш герой, проведший при дворе два месяца, и научившийся отличать костюм для tea break от туалета для брэйк-данса.
При том, что многие критики сочли фильм наивным, легковесным и неправдоподобным, общие кассовые сборы «Эксцессивного принца» в одной лишь Италии приблизились к 20-ти миллионам евро. Алессандро Сиани, таким образом, привел еще один убедительный аргумент в пользу тезиса о том, что зритель иногда в кино разбирается лучше, чем претенциозная публика. История Антонио и Летиции по большей части касается не любви, но доброты и человечности, без которых не обойтись.
Под атмосферный саундтрек от Умберто Скипионе наш герой Антонио пройдет путь сходный с метаморфозами Поля из фильма Александра Кастаньетти и Корентена Джулиуса «Квартирант» и докажет, что необязательно жить в замке и слыть чванливым аристократом. Намного лучше быть пройдохой, оставаясь при этом честным малым, и тогда ни одна принцесса перед вами не устоит.
Скриншоты: Время раздачи: с 10:00 до 20:00 (GMT+2) - до 4 скачавшихНе забываем говорить

[Цитировать]



Показать сообщения:    

Текущее время: 06-Дек 17:13

Часовой пояс: UTC + 3


Вы не можете начинать темы
Вы не можете отвечать на сообщения
Вы не можете редактировать свои сообщения
Вы не можете удалять свои сообщения
Вы не можете голосовать в опросах
Вы не можете прикреплять файлы к сообщениям
Вы не можете скачивать файлы

!ВНИМАНИЕ!
Сайт не предоставляет электронные версии произведений, а занимается лишь коллекционированием и каталогизацией ссылок, присылаемых и публикуемых на форуме нашими читателями. Если вы являетесь правообладателем какого-либо представленного материала и не желаете, чтобы ссылка на него находилась в нашем каталоге, свяжитесь с нами, и мы незамедлительно удалим ее. Файлы для обмена на трекере предоставлены пользователями сайта, и администрация не несет ответственности за их содержание. Просьба не заливать файлы, защищенные авторскими правами, а также файлы нелегального содержания!