[ Сегодня идет свободное скачивание без начисления Download ]


Статистика раздачи
Нет
 
   
 
Top  
 
 
-Услуга / Favor (2013) WEB-DLRip- Год выпуска: 2013
Производство: США, Conspicuous Pictures
Жанр: Триллер
Режиссер: Пол Осборн
Актеры: Блэйн Уивер, Патрик Дэй, Джеффри Комбс, Кристина Роуз, Элисон Мартин, Шерил Николс, Розали Уорд, Лесли Уиммер Осборн, Эми Донеган, Мэтт Фендер
Описание фильма:
Размеренная жизнь Кипа оказывается в опасности, когда в результате несчастного случая погибает его любовница. В отчаянии он обращается к другу детства Марвину, безработному неудачнику, который соглашается помочь ему избавиться от трупа и замести следы преступления. Это решение и приводит к событиям, которые оба друга не могли даже представить...
Перевод: Любительский одноголосый [datynet]
Субтитры: Отсутствуют

Продолжительность: 01:42:34
Качество видео: WEB-DLRip
Видеокодек: XviD
Битрейт видео: ~1712 Кбит/с
Размер кадра: 720x400
Аудиокодек: MP3 2 ch
Битрейт аудио: 192 Кбит/с

MediaInfo:

Общее
Полное имя : C:\NNM\Услуга\Usluga 2013 WEB-DLRip.avi
Формат : AVI
Формат/Информация : Audio Video Interleave
Размер файла : 1,37 Гбайт
Продолжительность : 1 ч. 42 м.
Общий поток : 1913 Кбит/сек
Программа кодирования : VirtualDubMod 1.5.10.3
Библиотека кодирования : VirtualDubMod build 2550/release
Видео
Идентификатор : 0
Формат : MPEG-4 Visual
Профиль формата : Advanced [email protected]
Параметр BVOP формата : 1
Параметр QPel формата : Нет
Параметр GMC формата : Без точки перехода
Параметр матрицы формата : Выборочная
Идентификатор кодека : XVID
Идентификатор кодека/Подсказка : XviD
Продолжительность : 1 ч. 42 м.
Битрейт : 1712 Кбит/сек
Ширина : 720 пикселей
Высота : 400 пикселей
Соотношение сторон : 16:9
Частота кадров : 23,976 кадра/сек
Цветовое пространство : YUV
Субдискретизация насыщенности : 4:2:0
Битовая глубина : 8 бит
Тип развёртки : Прогрессивная
Метод сжатия : С потерями
Бит/(Пиксели*Кадры) : 0.248
Размер потока : 1,23 Гбайт (89%)
Библиотека кодирования : XviD 1.2.1 (UTC 2008-12-04)
Аудио
Идентификатор : 1
Формат : MPEG Audio
Версия формата : Version 1
Профиль формата : Layer 3
Идентификатор кодека : 55
Идентификатор кодека/Подсказка : MP3
Продолжительность : 1 ч. 42 м.
Вид битрейта : Постоянный
Битрейт : 192 Кбит/сек
Каналы : 2 канала
Частота : 44,1 КГц
Метод сжатия : С потерями
Размер потока : 141 Мбайт (10%)
Выравнивание : Разделение по промежуткам
Продолжительность промежутка : 42 мс. (1,00 видеокадр)
Время предзагрузки промежутка : 500 мс.
Скриншоты: Время раздачи: Круглосуточно до 10 скачавших

[Цитировать]



Показать сообщения:    

Текущее время: 04-Дек 21:29

Часовой пояс: UTC + 3


Вы не можете начинать темы
Вы не можете отвечать на сообщения
Вы не можете редактировать свои сообщения
Вы не можете удалять свои сообщения
Вы не можете голосовать в опросах
Вы не можете прикреплять файлы к сообщениям
Вы не можете скачивать файлы

!ВНИМАНИЕ!
Сайт не предоставляет электронные версии произведений, а занимается лишь коллекционированием и каталогизацией ссылок, присылаемых и публикуемых на форуме нашими читателями. Если вы являетесь правообладателем какого-либо представленного материала и не желаете, чтобы ссылка на него находилась в нашем каталоге, свяжитесь с нами, и мы незамедлительно удалим ее. Файлы для обмена на трекере предоставлены пользователями сайта, и администрация не несет ответственности за их содержание. Просьба не заливать файлы, защищенные авторскими правами, а также файлы нелегального содержания!