[ Сегодня идет свободное скачивание без начисления Download ]


Статистика раздачи
Нет
 
   
 
Top  
 
 
-Осиное гнездо / Nid de guеpes (2002) BDRip [H.264] - Год выпуска: 2002
Жанр: Боевик, Триллер, Криминал
Производство: Франция / Canal+ [fr], Carr?re Groupe, Cin?mane Films, Cofimage 12, Embellie Productions, France 2 Cin?ma, Gimages 4, Path? Image Production
Описание фильма:
Офицер спецназа Элен Лабори получает задание отконвоировать в здание суда знаменитого албанского мафиози Абедина Нексера, обвиняемого в распространении проституции и создании широкой европейской сети домов терпимости. Лабори понимает, что мафия попытается спасти своего лидера. Так и случилось: во время операции вооруженные люди Нексера нападают на Лабори и ее агентов. Изматывая полицейских бешеной погоней, бандиты загоняют их в ловушку — огромный промышленный склад. Смертельная игра в «кошки-мышки» начинается…
Режиссер: Флоран Эмилио Сири
Сценарий: Флоран Эмилио Сири, Жан-Франсуа Тарновски
Продюсер: Гийом Годар, Патрик Гуйу-Бошам, Аксель Каррер
Актеры: Сами Насери, Бенуа Мажимель, Надя Фарес, Паскаль Греггори, Сами Буажила, Анисия Узейман, Рихард Заммель, Валерио Мастандреа, Марсаль Одон, Мартин Амик
Продолжительность: 01:47:16
Качество видео: BDRip
Перевод: Дублированный, авторский

Дата мировой премьеры: 6 марта 2002
Дата российской премьеры: 19 июня 2002, «Централ Партнершип»
Дата выхода DVD релиза: 22 октября 2009, «CP-Digital»
Видеокодек: MPEG-4 AVC/H.264
Битрейт видео: ~1704 Кбит/сек
Размер кадра: 1024x440
Аудио 1: Русский, AC3 5.1, 448 Кбит/сек, 48 kHz (Дублированный, МОСФИЛЬМ-мастер)
Аудио 2: Русский, AC3 2.0, 192 Кбит/сек, 48 kHz (Авторский, А.Карповский)

Реценция с кинопоиска от Freeman1983:

После того, как Бессон ударился во всякую ересь типа «13 района» или «Ямакаси», возникло ощущение, что французский экшн вымирает, как жанр. Ан нет, живехонек.
«Осиное гнездо» впечатляет прежде всего своей правдоподобностью. Здесь никто не делает сальто назад, держа автомат в зубах и одновременно метая сурикен в противника. Все гораздо проще и страшнее. Несколько полицейских, несколько мелких гангстеров, объединившихся перед лицом неминуемой смерти, представленной десятками арабов-смертников, штурмующих последний бастион.
Подобного рода фильмы уже выходили на экраны, например, «S.W.A.T.» или «Нападение на 13 участок». Но нигде гибельный реализм ситуации не был показан так четко и просто.
Странно, что фильм не приобрел широкую известность. На мой взгляд, он того более чем заслуживает.

MediaInfo:

General
Unique ID : 184389328030163552068824873036157916204 (0x8AB817C39147D7C28717C44D238D942C)
Complete name : F:\Downloads\Осиное гнездо.mkv
Format : Matroska
Format version : Version 4 / Version 2
File size : 1.75 GiB
Duration : 1h 47mn
Overall bit rate : 2 342 Kbps
Encoded date : UTC 2014-07-17 21:42:52
Writing application : mkvmerge v6.4.1 ('Omega Point') built on Sep 16 2013 22:05:10
Writing library : libebml v1.3.0 + libmatroska v1.4.1
Video
ID : 1
Format : AVC
Format/Info : Advanced Video Codec
Format profile : High@L4.1
Format settings, CABAC : Yes
Format settings, ReFrames : 8 frames
Codec ID : V_MPEG4/ISO/AVC
Duration : 1h 47mn
Bit rate : 1 704 Kbps
Width : 1 024 pixels
Height : 440 pixels
Display aspect ratio : 2.35:1
Frame rate mode : Constant
Frame rate : 24.000 fps
Color space : YUV
Chroma subsampling : 4:2:0
Bit depth : 8 bits
Scan type : Progressive
Bits/(Pixel*Frame) : 0.158
Stream size : 1.24 GiB (71%)
Title : Nid de gu?pes
Writing library : x264 core 125 r2208 d9d2288
Encoding settings : cabac=1 / ref=8 / deblock=1:-1:-1 / analyse=0x3:0x133 / me=umh / subme=9 / psy=1 / psy_rd=1.00:0.10 / mixed_ref=1 / me_range=32 / chroma_me=1 / trellis=2 / 8x8dct=1 / cqm=0 / deadzone=21,11 / fast_pskip=0 / chroma_qp_offset=-3 / threads=6 / lookahead_threads=1 / sliced_threads=0 / nr=0 / decimate=1 / interlaced=0 / bluray_compat=0 / constrained_intra=0 / bframes=3 / b_pyramid=2 / b_adapt=2 / b_bias=0 / direct=3 / weightb=1 / open_gop=0 / weightp=2 / keyint=250 / keyint_min=25 / scenecut=40 / intra_refresh=0 / rc_lookahead=60 / rc=2pass / mbtree=1 / bitrate=1704 / ratetol=1.0 / qcomp=0.60 / qpmin=0 / qpmax=69 / qpstep=4 / cplxblur=20.0 / qblur=0.5 / ip_ratio=1.40 / aq=1:1.00
Language : French
Default : Yes
Forced : No
Audio #1
ID : 2
Format : AC-3
Format/Info : Audio Coding 3
Mode extension : CM (complete main)
Format settings, Endianness : Big
Codec ID : A_AC3
Duration : 1h 47mn
Bit rate mode : Constant
Bit rate : 448 Kbps
Channel(s) : 6 channels
Channel positions : Front: L C R, Side: L R, LFE
Sampling rate : 48.0 KHz
Bit depth : 16 bits
Compression mode : Lossy
Stream size : 344 MiB (19%)
Title : Дублированный
Language : Russian
Default : Yes
Forced : No
Audio #2
ID : 3
Format : AC-3
Format/Info : Audio Coding 3
Mode extension : CM (complete main)
Format settings, Endianness : Big
Codec ID : A_AC3
Duration : 1h 47mn
Bit rate mode : Constant
Bit rate : 192 Kbps
Channel(s) : 2 channels
Channel positions : Front: L R
Sampling rate : 48.0 KHz
Bit depth : 16 bits
Compression mode : Lossy
Stream size : 147 MiB (8%)
Title : Авторский, А.Карповский
Language : Russian
Default : No
Forced : No
Скриншоты: Время раздачи: с 13:00 до 01:00 по Москве (выходные круглосуточно), до 10 скачавших

[Цитировать]



Показать сообщения:    

Текущее время: 29-Апр 09:42

Часовой пояс: UTC + 6


Вы не можете начинать темы
Вы не можете отвечать на сообщения
Вы не можете редактировать свои сообщения
Вы не можете удалять свои сообщения
Вы не можете голосовать в опросах
Вы не можете прикреплять файлы к сообщениям
Вы не можете скачивать файлы

!ВНИМАНИЕ!
Сайт не предоставляет электронные версии произведений, а занимается лишь коллекционированием и каталогизацией ссылок, присылаемых и публикуемых на форуме нашими читателями. Если вы являетесь правообладателем какого-либо представленного материала и не желаете, чтобы ссылка на него находилась в нашем каталоге, свяжитесь с нами, и мы незамедлительно удалим ее. Файлы для обмена на трекере предоставлены пользователями сайта, и администрация не несет ответственности за их содержание. Просьба не заливать файлы, защищенные авторскими правами, а также файлы нелегального содержания!