[ Сегодня идет свободное скачивание без начисления Download ]


Статистика раздачи
Нет
 
   
 
Top  
 
 
-Отважная / The Brave One (2007) HDRip- Год выпуска: 2007
Производство: США, Австралия
Жанр: Триллер, драма, криминал, боевик
Режиссер: Нил Джордан
Актеры: Джоди Фостер, Терренс Ховард, Нэвин Эндрюс, Джейн Адамс (II), Даг Агирр, Маргарет Бэйкер, Бретт Берг, Джеймс Бибери, Анджело Бонсигнор, Джек Карузо, Игорь Черкасский, Доминик Чикко, Берн Коэн, Брайан Дилейт, Дэна Эскелсон, Ларри Фесенден, Блэйз Фостер, Дэннис Фанни, Фрэнк Хансен, Джернел Ховард, Никки Кэтт, Зои Кравиц, Джон Магаро, Ребекка Косчински, Эн Нгуйен, Кевин Пол, Тони Перри, Иисус Руис, Рафаэль Сардина, Энджел Синг, Тина Слоун, Мэри Стинберген, Джейм Тирелли, Иво Велон, Малачи Вейр, Джо Долинский, Кармен Эджого, Гордон МакДональд
Описание фильма:
Для Эрики Бейн улицы Нью-Йорка стали домом и смыслом жизни. Будучи ведущей программы на радиостанции под названием «Прогулки по Нью-Йорку», она делится с радиослушателями звуками, которые слышит в своем любимом городе, и историями, которыми этот город делится с ней. А вечером она спешит домой к жениху Дейвиду Кирмани, любви всей её жизни. Но однажды ужасной ночью Эрику лишают всего ...
Перевод: Дублированный
Субтитры: Отсутствуют

Продолжительность: 02:02:18
Качество видео: HDRip
Видеокодек: XviD
Битрейт видео: ~1310 Кбит/с
Размер кадра: 720x304
Аудиокодек: AC3 6 ch
Битрейт аудио: 384 Кбит/с

MediaInfo:

Общее
Полное имя : C:\NNM\Отважная\Otvazhnaya 2007 HDRip Dubl.avi
Формат : AVI
Формат/Информация : Audio Video Interleave
Размер файла : 1,46 Гбайт
Продолжительность : 2 ч. 2 м.
Общий поток : 1703 Кбит/сек
Программа кодирования : VirtualDubModRus 1.5.10.2 (build 2542/release)
Библиотека кодирования : VirtualDubMod build 2542/release
Видео
Идентификатор : 0
Формат : MPEG-4 Visual
Профиль формата : Advanced [email protected]
Параметр BVOP формата : 1
Параметр QPel формата : Нет
Параметр GMC формата : Без точки перехода
Параметр матрицы формата : Выборочная
Идентификатор кодека : XVID
Идентификатор кодека/Подсказка : XviD
Продолжительность : 2 ч. 2 м.
Битрейт : 1310 Кбит/сек
Ширина : 720 пикселей
Высота : 304 пикселя
Соотношение сторон : 2,35:1
Частота кадров : 23,976 кадра/сек
Цветовое пространство : YUV
Субдискретизация насыщенности : 4:2:0
Битовая глубина : 8 бит
Тип развёртки : Прогрессивная
Метод сжатия : С потерями
Бит/(Пиксели*Кадры) : 0.250
Размер потока : 1,12 Гбайт (77%)
Библиотека кодирования : XviD 1.2.1 (UTC 2008-12-04)
Аудио
Идентификатор : 1
Формат : AC-3
Формат/Информация : Audio Coding 3
Расширение режима : CM (complete main)
Идентификатор кодека : 2000
Продолжительность : 2 ч. 2 м.
Вид битрейта : Постоянный
Битрейт : 384 Кбит/сек
Каналы : 6 каналов
Расположение каналов : Front: L C R, Side: L R, LFE
Частота : 48,0 КГц
Битовая глубина : 16 бит
Метод сжатия : С потерями
Размер потока : 336 Мбайт (23%)
Выравнивание : Разделение по промежуткам
Продолжительность промежутка : 42 мс. (1,00 видеокадр)
Время предзагрузки промежутка : 500 мс.
Скриншоты: Время раздачи: Круглосуточно до 10 скачавших

[Цитировать]



Показать сообщения:    

Текущее время: 06-Дек 03:55

Часовой пояс: UTC + 3


Вы не можете начинать темы
Вы не можете отвечать на сообщения
Вы не можете редактировать свои сообщения
Вы не можете удалять свои сообщения
Вы не можете голосовать в опросах
Вы не можете прикреплять файлы к сообщениям
Вы не можете скачивать файлы

!ВНИМАНИЕ!
Сайт не предоставляет электронные версии произведений, а занимается лишь коллекционированием и каталогизацией ссылок, присылаемых и публикуемых на форуме нашими читателями. Если вы являетесь правообладателем какого-либо представленного материала и не желаете, чтобы ссылка на него находилась в нашем каталоге, свяжитесь с нами, и мы незамедлительно удалим ее. Файлы для обмена на трекере предоставлены пользователями сайта, и администрация не несет ответственности за их содержание. Просьба не заливать файлы, защищенные авторскими правами, а также файлы нелегального содержания!