[ Сегодня идет свободное скачивание без начисления Download ]


Статистика раздачи
Нет
 
   
 
Top  
 
 
Люди мафии / Made Men«Think Bad. Get Bad»
Год выпуска: 1999
Страна: США
Производство: Decade Pictures , Made Men Productions Inc.
Режиссер: Луис Морно
В ролях: Джеймс Белуши, Тимоти Далтон, Джейми Харрис, Дэвид О'Доннелл, Карлтон Уилборн, Ванесса Эйнджел, Стив Рэйлсбэк, Майкл Бич...
Перевод: Профессиональный (многоголосый, закадровый)
Субтитры: Русские
Описание: Билл Вануччи, включенный в программу защиты свидетелей, в страшной спешке подпиливает пули, готовит оружие и отправляет свою жену Дебру в Лос-Анджелес. Приходят неприятные люди с оружием и собираются пытать Билла, упрекая его в том, что он предал Шкиппера. Билл говорит, что он просто украл у него деньги. Ребята хотят знать, где спрятаны деньги Шкиппера, и под шум сверла Билл обещает показать, где деньги зарыты. Уже в машине Билл обещает всем по четыре миллиона из 12 украденных, а на заправке к бандитам подходит Декс, местный шериф города Хармони, интересующийся, откуда появились «неместные». Шериф сообщает о них по рации своему напарнику Корли и просит последить за машиной. Билл «разводит» недалеких бандитов, расписывая, как на бензоколонке они хотели убить отсутствующих, и, воспользовавшись дракой, бежит. Тем временем помощник шерифа Корли просит предъявить права у оставшегося у машины бандита и получает несколько пуль в грудь. Билл заходит в какой-то большойамбар и нарывается на местных крутых ребят, устроивших там завод по переработке наркотиков под руководством колоритнейшего Кайла. Билл предлагает Кайлу 12 миллионов. Начинаетсяя крутая перестрелка. Итак, подведем итоги: Билл, прикарманивший 12 «лимонов» у босса чикагской мафии, должен спасти свою шкуру и, желательно, деньги от посланных за ним бандитов, местных наркодельцов и шерифа, у которого убили любимого помощника…
[kp]18788[/kp] [imdb]tt0175877[/imdb]
Качество: DVD5
Продолжительность: 01:26:54
Формат: MKV
Видео кодек: H.26x
Аудио кодек: AC3
Видео: 712-->762x546 (1,396:1), 25,000 fps, H264 ~ 1629 kbps avg, 0.168 bit/pixel
Аудио: 48 kHz, Dolby Digital AC3 5.1, 384 kbps MVO
Аудио #2: 48 kHz, Dolby Digital AC3 5.1, 384 kbps Английский
Премьера (мир): 11 июня 1999

Media Info

Общее
Полное имя : Lyudi.mafii.1999.DVDRip-AVC_[New-team]_by_AVP_Studio.mkv
Формат : Matroska
Версия формата : Version 4 / Version 2
Размер файла : 1,46 Гбайт
Продолжительность : 1 ч. 26 м.
Общий поток : 2399 Кбит/сек
Название фильма : Lyudi.mafii.1999.DVDRip-AVC_[New-team]_by_AVP_Studio
Дата кодирования : UTC 2014-07-22 08:37:56
Программа кодирования : mkvmerge v6.9.1 ('Blue Panther') 64bit built on Apr 18 2014 18:23:38
Библиотека кодирования : libebml v1.3.0 + libmatroska v1.4.1
Видео
Идентификатор : 1
Формат : AVC
Формат/Информация : Advanced Video Codec
Профиль формата : High@L4.1
Параметр CABAC формата : Да
Параметр ReFrames формата : 8 кадров
Идентификатор кодека : V_MPEG4/ISO/AVC
Продолжительность : 1 ч. 26 м.
Битрейт : 1629 Кбит/сек
Ширина : 712 пикселей
Высота : 546 пикселей
Соотношение сторон : 1,396
Соотношение сторон в оригинале : 1,395
Режим частоты кадров : Постоянный
Частота кадров : 25,000 кадров/сек
Цветовое пространство : YUV
Субдискретизация насыщенности : 4:2:0
Битовая глубина : 8 бит
Тип развёртки : Прогрессивная
Бит/(Пиксели*Кадры) : 0.168
Размер потока : 984 Мбайт (66%)
Заголовок : Источник DVD
Библиотека кодирования : x264 core 138 r2356 a1d3d17
Настройки программы : cabac=1 / ref=8 / deblock=1:-2:-1 / analyse=0x3:0x113 / me=umh / subme=10 / psy=1 / psy_rd=1.00:0.05 / mixed_ref=1 / me_range=32 / chroma_me=1 / trellis=2 / 8x8dct=1 / cqm=0 / deadzone=21,11 / fast_pskip=0 / chroma_qp_offset=-3 / threads=6 / lookahead_threads=1 / sliced_threads=0 / nr=0 / decimate=0 / interlaced=0 / bluray_compat=0 / constrained_intra=0 / bframes=8 / b_pyramid=2 / b_adapt=2 / b_bias=0 / direct=3 / weightb=1 / open_gop=0 / weightp=2 / keyint=250 / keyint_min=25 / scenecut=40 / intra_refresh=0 / rc=2pass / mbtree=0 / bitrate=1629 / ratetol=1.0 / qcomp=0.60 / qpmin=0 / qpmax=69 / qpstep=4 / cplxblur=20.0 / qblur=0.5 / ip_ratio=1.40 / pb_ratio=1.30 / aq=1:1.00
Язык : English
Default : Да
Forced : Нет
Аудио #1
Идентификатор : 2
Формат : AC-3
Формат/Информация : Audio Coding 3
Расширение режима : CM (complete main)
Параметр Endianness формата : Big
Идентификатор кодека : A_AC3
Продолжительность : 1 ч. 26 м.
Вид битрейта : Постоянный
Битрейт : 384 Кбит/сек
Каналы : 6 каналов
Расположение каналов : Front: L C R, Side: L R, LFE
Частота : 48,0 КГц
Битовая глубина : 16 бит
Метод сжатия : С потерями
Размер потока : 239 Мбайт (16%)
Заголовок : Источник DVD Dolby Digital 5,1 384 kbps MVO
Язык : Russian
Default : Да
Forced : Нет
Аудио #2
Идентификатор : 3
Формат : AC-3
Формат/Информация : Audio Coding 3
Расширение режима : CM (complete main)
Параметр Endianness формата : Big
Идентификатор кодека : A_AC3
Продолжительность : 1 ч. 26 м.
Вид битрейта : Постоянный
Битрейт : 384 Кбит/сек
Каналы : 6 каналов
Расположение каналов : Front: L C R, Side: L R, LFE
Частота : 48,0 КГц
Битовая глубина : 16 бит
Метод сжатия : С потерями
Размер потока : 239 Мбайт (16%)
Заголовок : Источник DVD Dolby Digital 5,1 384 kbps
Язык : English
Default : Нет
Forced : Нет
Текст
Идентификатор : 4
Формат : UTF-8
Идентификатор кодека : S_TEXT/UTF8
Идентификатор кодека/Информация : UTF-8 Plain Text
Заголовок : Источник DVD SoftSub (srt)
Язык : Russian
Default : Нет
Forced : Нет
Меню
00:00:00.000 : ru:Эпизод 01
00:04:52.800 : ru:Эпизод 02
00:10:36.360 : ru:Эпизод 03
00:13:21.600 : ru:Эпизод 04
00:16:40.560 : ru:Эпизод 05
00:18:54.600 : ru:Эпизод 06
00:21:14.040 : ru:Эпизод 07
00:22:56.040 : ru:Эпизод 08
00:25:30.720 : ru:Эпизод 09
00:28:12.960 : ru:Эпизод 10
00:30:15.120 : ru:Эпизод 11
00:31:06.120 : ru:Эпизод 12
00:31:34.920 : ru:Эпизод 13
00:33:19.200 : ru:Эпизод 14
00:36:21.600 : ru:Эпизод 15
00:38:08.520 : ru:Эпизод 16
00:39:19.440 : ru:Эпизод 17
00:42:45.720 : ru:Эпизод 18
00:43:36.240 : ru:Эпизод 19
00:47:24.480 : ru:Эпизод 20
00:50:15.600 : ru:Эпизод 21
00:52:17.400 : ru:Эпизод 22
00:56:25.320 : ru:Эпизод 23
00:57:48.720 : ru:Эпизод 24
00:59:56.280 : ru:Эпизод 25
01:03:46.920 : ru:Эпизод 26
01:09:37.560 : ru:Эпизод 27
01:11:10.440 : ru:Эпизод 28
01:12:20.160 : ru:Эпизод 29
01:13:45.000 : ru:Эпизод 30
01:16:28.080 : ru:Эпизод 31
01:20:14.520 : ru:Эпизод 32
01:22:01.200 : ru:Эпизод 33
:

[Цитировать]



Показать сообщения:    

Текущее время: 11-Дек 12:56

Часовой пояс: UTC + 3


Вы не можете начинать темы
Вы не можете отвечать на сообщения
Вы не можете редактировать свои сообщения
Вы не можете удалять свои сообщения
Вы не можете голосовать в опросах
Вы не можете прикреплять файлы к сообщениям
Вы не можете скачивать файлы

!ВНИМАНИЕ!
Сайт не предоставляет электронные версии произведений, а занимается лишь коллекционированием и каталогизацией ссылок, присылаемых и публикуемых на форуме нашими читателями. Если вы являетесь правообладателем какого-либо представленного материала и не желаете, чтобы ссылка на него находилась в нашем каталоге, свяжитесь с нами, и мы незамедлительно удалим ее. Файлы для обмена на трекере предоставлены пользователями сайта, и администрация не несет ответственности за их содержание. Просьба не заливать файлы, защищенные авторскими правами, а также файлы нелегального содержания!