[ Сегодня идет свободное скачивание без начисления Download ]


Статистика раздачи
Нет
 
   
 
Top  
 
 
-Блондинка в эфире / Walk of Shame (2014) BDRip- Год выпуска: 2014
Производство: США - Sidney Kimmel Entertainment, FilmDistrict, Lakeshore Entertainment
Жанр: Комедия, приключения
Режиссер: Стивен Брилл
Продюсер: Сидни Киммел, Гари Лучези, Том Розенберг
Актеры: Элизабет Бэнкс, Джеймс Марсден, Джиллиан Джейкобс, Сара Райт, Итэн Сапли, Билли Барр, Кен Давитян, Ларри Джиллиард мл., Альфонсо МакОли, Дэвон МакДональд
Описание фильма:
Мечта репортерши стать ведущей программы новостей может быть разрушена. После ночи кутежа она оказывается в дальнем районе Лос-Анджелеса без телефона, автомобиля, паспорта и денег — и у нее остается только 8 часов, чтобы добраться до самого важного собеседования ее жизни.
Перевод: Дублированный |лицензия|
Субтитры: Вшитые отключаемые
Язык субтитров: Русский, английский, румынский

Дата мировой премьеры: 1 мая 2014
Дата российской премьеры: 7 мая 2014, «Парадиз»
Дата выхода DVD релиза: 29 июля 2014, «Парадиз / Активижен»
Дата выхода Blu-ray релиза: 29 июля 2014, «Парадиз / Активижен»
Продолжительность: 01:34:28
Качество видео: BDRip 1080p
Видео: MPEG-4 AVC/H.264, 16.0 Мбит/с, 1920x800, 23.976 кадр/с
Аудио #1: Русский: AC3, 5.1, 640 Кбит/с, 48 kHz, 16 bit
Аудио #2: Русский: DTS, 5.1, 1536 Кбит/с, 48 kHz, 24 bit
Аудио #3: Английский: DTS, 5.1, 1536 Кбит/с, 48 kHz, 24 bit
Сохранены оригинальные чаптеры как на Blu-Ray

Знаете ли вы, что...:

Желтое платье, в котором ходит Элизабет Бэнкс на протяжении всего фильма, было создано нью-йоркским дизайнером Эгалом Азроэлом (Yigal Azrou?l), однако в одной из сцен говорится, что платье «от Марка Джейкобса».

Рецензия:

Стереотипы долой — блондинки правят миром!
Потрясающая картина! Знаете, бывает такое, когда не хочется покупать билет или загружать фильм типа «Пролетая над гнездом кукушки» или «Миллионер из трущоб». Да, безусловно, я люблю в фильмах философскую проблематику, глубокие насущные проблемы, но иногда хочется просто расслабиться на полтора часа и получить массу позитивных эмоций. Если вы со мной солидарны, то обязательно смотрите этот фильм!
Блондинка в коротком жёлтом платье, ночной Лос-Анджелес, отсутствие мобильных устройств и денег — уже интересно. Ко всему прочему, на долю несчастной блондинки в исполнении Элизабет Бэнкс выпало столько приключений, что любой Индиана Джонс упал бы духом, ведь она ещё и на каблуках! Я действительно восхищена игрой этой замечательной актрисой, да к чему привирать, я
восхищена её красотой! В 40 лет иметь идеальную фигуру, бегать на каблуках быстрее накаченного чёрного мэна — уже восхищает. Весь фильм — это огромная кампания по разрушению стереотипов. Режиссёр Стивен Брилл будто иронизирует: ну да, идёт блондинка во второсортном платьице по улице ночью, это не значит, что она легкомысленная и мало думающая о последствиях девушка — она показывает, что никакие преграды ей не помеха на пути к долгожданной карьере телеведущей!
Безумно понравилась обстановка города. Порадовало, что режиссёр не стал показывать нам пляжи, Беверли-Хиллз — банальные районы Лос-Анджелеса. Вместе с героиней мы познаём другой Лос-Анджелес, тот, что обычно скрывается в тени знаменитых улочек.
Фильм замечательный. Не типичный, своеобразные, с доброй ложкой здорового юмора и огромного количества позитивных эмоций после просмотра. Не пропустите!
8 из 10

MediaInfo:

Общее
Уникальный идентификатор : 220644987359814329173580909676883234110 (0xA5FEADC760D643ED92460705396A4D3E)
Полное имя : D:\Video\Walk.of.Shame.2014.1080p.mkv
Формат : Matroska
Версия формата : Version 4 / Version 2
Размер файла : 13,3 Гбайт
Продолжительность : 1 ч. 34 м.
Общий поток : 20,1 Мбит/сек
Дата кодирования : UTC 2014-07-23 16:01:15
Программа кодирования : mkvmerge v6.1.0 ('Old Devil') built on Mar 4 2013 09:10:42
Библиотека кодирования : libebml v1.3.0 + libmatroska v1.4.0
Видео
Идентификатор : 1
Формат : AVC
Формат/Информация : Advanced Video Codec
Профиль формата : High@L4.1
Параметр CABAC формата : Да
Параметр ReFrames формата : 5 кадров
Идентификатор кодека : V_MPEG4/ISO/AVC
Продолжительность : 1 ч. 34 м.
Битрейт : 16,0 Мбит/сек
Ширина : 1916 пикселей
Высота : 800 пикселей
Соотношение сторон : 2,40:1
Режим частоты кадров : Постоянный
Частота кадров : 23,976 кадра/сек
Цветовое пространство : YUV
Субдискретизация насыщенности : 4:2:0
Битовая глубина : 8 бит
Тип развёртки : Прогрессивная
Бит/(Пиксели*Кадры) : 0.437
Размер потока : 10,6 Гбайт (80%)
Библиотека кодирования : x264 core 140 r2377 1ca7bb9
Настройки программы : cabac=1 / ref=5 / deblock=1:-3:-3 / analyse=0x3:0x133 / me=umh / subme=11 / psy=1 / psy_rd=1.05:0.00 / mixed_ref=1 / me_range=48 / chroma_me=1 / trellis=2 / 8x8dct=1 / cqm=0 / deadzone=21,11 / fast_pskip=0 / chroma_qp_offset=-2 / threads=12 / lookahead_threads=2 / sliced_threads=0 / nr=0 / decimate=0 / interlaced=0 / bluray_compat=0 / constrained_intra=0 / bframes=8 / b_pyramid=2 / b_adapt=2 / b_bias=0 / direct=3 / weightb=1 / open_gop=0 / weightp=2 / keyint=240 / keyint_min=23 / scenecut=40 / intra_refresh=0 / rc_lookahead=60 / rc=crf / mbtree=0 / crf=16.0 / qcomp=0.60 / qpmin=0 / qpmax=69 / qpstep=4 / vbv_maxrate=62500 / vbv_bufsize=78125 / crf_max=0.0 / nal_hrd=none / filler=0 / ip_ratio=1.20 / pb_ratio=1.10 / aq=1:0.70
Язык : English
Default : Да
Forced : Нет
Аудио #1
Идентификатор : 2
Формат : AC-3
Формат/Информация : Audio Coding 3
Расширение режима : CM (complete main)
Параметр Endianness формата : Big
Идентификатор кодека : A_AC3
Продолжительность : 1 ч. 34 м.
Вид битрейта : Постоянный
Битрейт : 640 Кбит/сек
Каналы : 6 каналов
Расположение каналов : Front: L C R, Side: L R, LFE
Частота : 48,0 КГц
Битовая глубина : 16 бит
Метод сжатия : С потерями
Размер потока : 433 Мбайт (3%)
Язык : Russian
Default : Да
Forced : Нет
Аудио #2
Идентификатор : 3
Формат : DTS
Формат/Информация : Digital Theater Systems
Режим : 16
Параметр Endianness формата : Big
Идентификатор кодека : A_DTS
Продолжительность : 1 ч. 34 м.
Вид битрейта : Постоянный
Битрейт : 1509 Кбит/сек
Каналы : 6 каналов
Расположение каналов : Front: L C R, Side: L R, LFE
Частота : 48,0 КГц
Битовая глубина : 24 бит
Метод сжатия : С потерями
Размер потока : 1020 Мбайт (8%)
Язык : Russian
Default : Нет
Forced : Нет
Аудио #3
Идентификатор : 4
Формат : DTS
Формат/Информация : Digital Theater Systems
Режим : 16
Параметр Endianness формата : Big
Идентификатор кодека : A_DTS
Продолжительность : 1 ч. 34 м.
Вид битрейта : Постоянный
Битрейт : 1509 Кбит/сек
Каналы : 6 каналов
Расположение каналов : Front: L C R, Side: L R, LFE
Частота : 48,0 КГц
Битовая глубина : 24 бит
Метод сжатия : С потерями
Размер потока : 1020 Мбайт (8%)
Язык : English
Default : Нет
Forced : Нет
Текст #1
Идентификатор : 5
Формат : UTF-8
Идентификатор кодека : S_TEXT/UTF8
Идентификатор кодека/Информация : UTF-8 Plain Text
Язык : Romanian
Default : Нет
Forced : Нет
Текст #2
Идентификатор : 6
Формат : UTF-8
Идентификатор кодека : S_TEXT/UTF8
Идентификатор кодека/Информация : UTF-8 Plain Text
Язык : Russian
Default : Нет
Forced : Нет
Текст #3
Идентификатор : 7
Формат : UTF-8
Идентификатор кодека : S_TEXT/UTF8
Идентификатор кодека/Информация : UTF-8 Plain Text
Язык : English
Default : Нет
Forced : Нет
Меню
00:00:00.000 : en:00:00:00.000
00:02:27.689 : en:00:02:27.689
00:07:23.735 : en:00:07:23.735
00:12:20.531 : en:00:12:20.531
00:17:16.702 : en:00:17:16.702
00:22:08.118 : en:00:22:08.118
00:26:53.737 : en:00:26:53.737
00:32:04.464 : en:00:32:04.464
00:39:18.898 : en:00:39:18.898
00:46:26.409 : en:00:46:26.409
00:51:02.977 : en:00:51:02.977
00:54:24.678 : en:00:54:24.678
00:59:49.211 : en:00:59:49.211
01:05:01.523 : en:01:05:01.523
01:07:40.223 : en:01:07:40.223
01:11:44.634 : en:01:11:44.634
01:15:06.252 : en:01:15:06.252
01:22:58.473 : en:01:22:58.473
01:27:27.701 : en:01:27:27.701
01:29:34.703 : en:01:29:34.703
Скриншоты:
Время раздачи: с 10:00 до 20:00 (GMT+2) - до 10 скачавшихНе забываем говорить

[Цитировать]



Показать сообщения:    

Текущее время: 09-Дек 22:28

Часовой пояс: UTC + 3


Вы не можете начинать темы
Вы не можете отвечать на сообщения
Вы не можете редактировать свои сообщения
Вы не можете удалять свои сообщения
Вы не можете голосовать в опросах
Вы не можете прикреплять файлы к сообщениям
Вы не можете скачивать файлы

!ВНИМАНИЕ!
Сайт не предоставляет электронные версии произведений, а занимается лишь коллекционированием и каталогизацией ссылок, присылаемых и публикуемых на форуме нашими читателями. Если вы являетесь правообладателем какого-либо представленного материала и не желаете, чтобы ссылка на него находилась в нашем каталоге, свяжитесь с нами, и мы незамедлительно удалим ее. Файлы для обмена на трекере предоставлены пользователями сайта, и администрация не несет ответственности за их содержание. Просьба не заливать файлы, защищенные авторскими правами, а также файлы нелегального содержания!