[ Сегодня идет свободное скачивание без начисления Download ]


Статистика раздачи
Нет
 
   
 
Top  
 
 
-Приключения Робин Гуда / The Adventures of Robin Hood (1938) BDRip [1080p]- Год выпуска: 1938
Производство: США / Warner Bros. Pictures
Жанр: Приключения
Перевод: Многоголосый х4, Двухголосый, Одноголосый
Субтитры: Вшитые отключаемые
Язык субтитров: Русский, Английский
Дата мировой премьеры: 14 мая 1938
Дата выхода DVD релиза: 15 марта 2012, «New Dream media»
Режиссер: Майкл Кёртиц, Уильям Кили
Продюсер: Генри Бланк, Хэл Б. Уоллис, Джек Л. Уорнер
Актеры: Эррол Флинн, Оливия Де Хэвилленд, Бэзил Рэтбоун, Клод Рейнс, Патрик Ноулз, Юджин Пэллет, Алан Хейл, Мелвилл Купер, Иэн Хантер, Уна О’Коннор
Описание фильма:
Как известно из легенд, добрый король английский Ричард отправился в Крестовый поход и попал там в плен. Принц Джон захватил трон и, движимый жаждой наживы, начал обирать народ.
Разоренный им сэр Робин Локсли ушел в Шервудский лес и под именем Робин Гуда возглавил банду разбойников, объявив войну прихвостням принца Джона — рыцарю Гаю Гизборну и трусливому шерифу Ноттингема.
Попутно он сражался за сердце томно-мечтательной леди Марианны — прекрасной Оливии Де Хэвилленд.

Продолжительность: 01:41:55
Качество видео: BDRip
Видео: MPEG-4 AVC/H.264, 1472x1080, ~10,3 Мбит/сек, 23,976 кадра/сек, 0.270 Пиксели/Кадры
Аудио #1: AC-3, 192 Кбит/сек, 2 канала (Русский - Многоголосый ''DVD Магия'')
Аудио #2: AC-3, 192 Кбит/сек, 2 канала (Русский - Многоголосый ''New Dream Media'')
Аудио #3: AC-3, 192 Кбит/сек, 2 канала (Русский - Многоголосый ''SomeWax'')
Аудио #4: AC-3, 192 Кбит/сек, 2 канала (Русский - Многоголосый ''Светла'')
Аудио #5: AC-3, 192 Кбит/сек, 2 канала (Русский - Двухголосый ''РенТВ'')
Аудио #6: AC-3, 192 Кбит/сек, 2 канала (Русский - Одноголосый ''Master Tape'')
Аудио #7: AC-3, 192 Кбит/сек, 1 канал (Английский - Оригинал)
Сэмпл: Скачать

MediaInfo

Общее
Уникальный идентификатор : 248235439925034369413442746335891543513 (0xBAC0681D8E203B62B47A6780B75FD5D9)
Полное имя : Приключения Робин Гуда (The Adventures of Robin Hood) 1080p.mkv
Формат : Matroska
Версия формата : Version 2
Размер файла : 8,29 Гбайт
Продолжительность : 1 ч. 41 м.
Общий поток : 11,6 Мбит/сек
Дата кодирования : UTC 2014-07-20 03:13:03
Программа кодирования : mkvmerge v3.4.0 ('Rapunzel') сборка от May 15 2010 09:38:20
Библиотека кодирования : libebml v0.8.0 + libmatroska v0.9.0
Видео
Идентификатор : 1
Формат : AVC
Формат/Информация : Advanced Video Codec
Профиль формата : [email protected]
Параметр CABAC формата : Да
Параметр ReFrames формата : 5 кадров
Идентификатор кодека : V_MPEG4/ISO/AVC
Продолжительность : 1 ч. 41 м.
Битрейт : 10,3 Мбит/сек
Ширина : 1472 пикселя
Высота : 1080 пикселей
Соотношение сторон : 4:3
Режим частоты кадров : Постоянный
Частота кадров : 23,976 кадра/сек
Цветовое пространство : YUV
Субдискретизация насыщенности : 4:2:0
Битовая глубина : 8 бит
Тип развёртки : Прогрессивная
Бит/(Пиксели*Кадры) : 0.270
Размер потока : 7,17 Гбайт (86%)
Заголовок : Приключения Робин Гуда (The Adventures of Robin Hood) 1080p
Библиотека кодирования : x264 core 142 r2431 ac76440
Настройки программы : cabac=1 / ref=5 / deblock=1:-1:-1 / analyse=0x3:0x133 / me=umh / subme=11 / psy=1 / psy_rd=1.00:0.15 / mixed_ref=1 / me_range=64 / chroma_me=1 / trellis=2 / 8x8dct=1 / cqm=0 / deadzone=21,11 / fast_pskip=0 / chroma_qp_offset=-3 / threads=6 / lookahead_threads=1 / sliced_threads=0 / nr=0 / decimate=0 / interlaced=0 / bluray_compat=0 / constrained_intra=0 / bframes=16 / b_pyramid=2 / b_adapt=2 / b_bias=0 / direct=3 / weightb=1 / open_gop=0 / weightp=2 / keyint=240 / keyint_min=23 / scenecut=40 / intra_refresh=0 / rc_lookahead=60 / rc=2pass / mbtree=0 / bitrate=10300 / ratetol=1.0 / qcomp=0.60 / qpmin=0 / qpmax=69 / qpstep=4 / cplxblur=20.0 / qblur=0.5 / vbv_maxrate=50000 / vbv_bufsize=62500 / nal_hrd=none / filler=0 / ip_ratio=1.40 / pb_ratio=1.30 / aq=1:1.00
Язык : English
Default : Да
Forced : Нет
Аудио #1
Идентификатор : 2
Формат : AC-3
Формат/Информация : Audio Coding 3
Расширение режима : CM (complete main)
Параметр Endianness формата : Big
Идентификатор кодека : A_AC3
Продолжительность : 1 ч. 41 м.
Вид битрейта : Постоянный
Битрейт : 192 Кбит/сек
Каналы : 2 канала
Расположение каналов : Front: L R
Частота : 48,0 КГц
Битовая глубина : 16 бит
Метод сжатия : С потерями
Размер потока : 140 Мбайт (2%)
Заголовок : Многоголосый ''DVD Магия'' (AC-3, Постоянный, 192 Кбит/сек, 2 канала, 48,0 КГц, 16 бит)
Язык : Russian
Default : Да
Forced : Нет
Аудио #2
Идентификатор : 3
Формат : AC-3
Формат/Информация : Audio Coding 3
Расширение режима : CM (complete main)
Параметр Endianness формата : Big
Идентификатор кодека : A_AC3
Продолжительность : 1 ч. 41 м.
Вид битрейта : Постоянный
Битрейт : 192 Кбит/сек
Каналы : 2 канала
Расположение каналов : Front: L R
Частота : 48,0 КГц
Битовая глубина : 16 бит
Метод сжатия : С потерями
Размер потока : 140 Мбайт (2%)
Заголовок : Многоголосый ''New Dream Media'' (AC-3, Постоянный, 192 Кбит/сек, 2 канала, 48,0 КГц, 16 бит)
Язык : Russian
Default : Нет
Forced : Нет
Аудио #3
Идентификатор : 4
Формат : AC-3
Формат/Информация : Audio Coding 3
Расширение режима : CM (complete main)
Параметр Endianness формата : Big
Идентификатор кодека : A_AC3
Продолжительность : 1 ч. 41 м.
Вид битрейта : Постоянный
Битрейт : 192 Кбит/сек
Каналы : 2 канала
Расположение каналов : Front: L R
Частота : 48,0 КГц
Битовая глубина : 16 бит
Метод сжатия : С потерями
Размер потока : 140 Мбайт (2%)
Заголовок : Многоголосый ''SomeWax'' (AC-3, Постоянный, 192 Кбит/сек, 2 канала, 48,0 КГц, 16 бит)
Язык : Russian
Default : Нет
Forced : Нет
Аудио #4
Идентификатор : 5
Формат : AC-3
Формат/Информация : Audio Coding 3
Расширение режима : CM (complete main)
Параметр Endianness формата : Big
Идентификатор кодека : A_AC3
Продолжительность : 1 ч. 41 м.
Вид битрейта : Постоянный
Битрейт : 192 Кбит/сек
Каналы : 2 канала
Расположение каналов : Front: L R
Частота : 48,0 КГц
Битовая глубина : 16 бит
Метод сжатия : С потерями
Размер потока : 140 Мбайт (2%)
Заголовок : Многоголосый ''Светла'' (AC-3, Постоянный, 192 Кбит/сек, 2 канала, 48,0 КГц, 16 бит)
Язык : Russian
Default : Нет
Forced : Нет
Аудио #5
Идентификатор : 6
Формат : AC-3
Формат/Информация : Audio Coding 3
Расширение режима : CM (complete main)
Параметр Endianness формата : Big
Идентификатор кодека : A_AC3
Продолжительность : 1 ч. 41 м.
Вид битрейта : Постоянный
Битрейт : 192 Кбит/сек
Каналы : 2 канала
Расположение каналов : Front: L R
Частота : 48,0 КГц
Битовая глубина : 16 бит
Метод сжатия : С потерями
Размер потока : 140 Мбайт (2%)
Заголовок : Двухголосый ''РенТВ'' (AC-3, Постоянный, 192 Кбит/сек, 2 канала, 48,0 КГц, 16 бит)
Язык : Russian
Default : Нет
Forced : Нет
Аудио #6
Идентификатор : 7
Формат : AC-3
Формат/Информация : Audio Coding 3
Расширение режима : CM (complete main)
Параметр Endianness формата : Big
Идентификатор кодека : A_AC3
Продолжительность : 1 ч. 41 м.
Вид битрейта : Постоянный
Битрейт : 192 Кбит/сек
Каналы : 2 канала
Расположение каналов : Front: L R
Частота : 48,0 КГц
Битовая глубина : 16 бит
Метод сжатия : С потерями
Размер потока : 140 Мбайт (2%)
Заголовок : Одноголосый ''Master Tape'' (AC-3, Постоянный, 192 Кбит/сек, 2 канала, 48,0 КГц, 16 бит)
Язык : Russian
Default : Нет
Forced : Нет
Аудио #7
Идентификатор : 8
Формат : AC-3
Формат/Информация : Audio Coding 3
Расширение режима : CM (complete main)
Параметр Endianness формата : Big
Идентификатор кодека : A_AC3
Продолжительность : 1 ч. 41 м.
Вид битрейта : Постоянный
Битрейт : 192 Кбит/сек
Каналы : 1 канал
Расположение каналов : Front: C
Частота : 48,0 КГц
Битовая глубина : 16 бит
Метод сжатия : С потерями
Размер потока : 140 Мбайт (2%)
Заголовок : Английский (AC-3, Постоянный, 192 Кбит/сек, 1 канал, 48,0 КГц, 16 бит)
Язык : English
Default : Нет
Forced : Нет
Текст #1
Идентификатор : 9
Формат : UTF-8
Идентификатор кодека : S_TEXT/UTF8
Идентификатор кодека/Информация : UTF-8 Plain Text
Заголовок : Русские
Язык : Russian
Default : Да
Forced : Нет
Текст #2
Идентификатор : 10
Формат : UTF-8
Идентификатор кодека : S_TEXT/UTF8
Идентификатор кодека/Информация : UTF-8 Plain Text
Заголовок : Английские
Язык : English
Default : Нет
Forced : Нет
Меню
00:00:00.000 : en:00:00:00.000
00:03:17.197 : en:00:03:17.197
00:06:19.045 : en:00:06:19.045
00:09:30.570 : en:00:09:30.570
00:12:03.556 : en:00:12:03.556
00:16:37.830 : en:00:16:37.830
00:20:15.047 : en:00:20:15.047
00:23:37.415 : en:00:23:37.415
00:25:21.853 : en:00:25:21.853
00:27:44.829 : en:00:27:44.829
00:33:24.502 : en:00:33:24.502
00:38:27.972 : en:00:38:27.972
00:42:19.870 : en:00:42:19.870
00:46:45.302 : en:00:46:45.302
00:48:29.907 : en:00:48:29.907
00:53:01.678 : en:00:53:01.678
00:57:23.606 : en:00:57:23.606
01:00:01.597 : en:01:00:01.597
01:04:45.882 : en:01:04:45.882
01:09:11.814 : en:01:09:11.814
01:14:45.981 : en:01:14:45.981
01:17:50.499 : en:01:17:50.499
01:21:50.905 : en:01:21:50.905
01:25:22.117 : en:01:25:22.117
01:29:53.554 : en:01:29:53.554
01:33:00.241 : en:01:33:00.241
01:35:47.408 : en:01:35:47.408
01:38:14.388 : en:01:38:14.388
01:41:19.073 : en:01:41:19.073
Скриншоты:

Время раздачи: По возможности 24/7

[Цитировать]



Показать сообщения:    

Текущее время: 04-Дек 23:28

Часовой пояс: UTC + 3


Вы не можете начинать темы
Вы не можете отвечать на сообщения
Вы не можете редактировать свои сообщения
Вы не можете удалять свои сообщения
Вы не можете голосовать в опросах
Вы не можете прикреплять файлы к сообщениям
Вы не можете скачивать файлы

!ВНИМАНИЕ!
Сайт не предоставляет электронные версии произведений, а занимается лишь коллекционированием и каталогизацией ссылок, присылаемых и публикуемых на форуме нашими читателями. Если вы являетесь правообладателем какого-либо представленного материала и не желаете, чтобы ссылка на него находилась в нашем каталоге, свяжитесь с нами, и мы незамедлительно удалим ее. Файлы для обмена на трекере предоставлены пользователями сайта, и администрация не несет ответственности за их содержание. Просьба не заливать файлы, защищенные авторскими правами, а также файлы нелегального содержания!