[ Сегодня идет свободное скачивание без начисления Download ]


Статистика раздачи
Нет
 
   
 
Top  
 
 
-Пленники солнца / Prisoners of the Sun (2013) HDTV- Год выпуска: 2013
Жанр: Ужасы, Детектив, Приключения
Производство: США, Германия
Перевод: Многоголосый закадровый
Субтитры: Отсутствуют
Описание фильма:
Международная экспедиция обнаруживает потерянный город в подземелье под пирамидой. Археологи должны помешать пробудившимся фараонам древнего Египта устроить апокалипсис.
Режиссер: Роджер Кристиан
Актеры: Джон Рис-Дэвис, Дэвид Чэрвет, Кармен Чаплин, Эмили Холмс, Ник Моран, Джосс Экленд, Майкл Хиггс, Гульшан Гровер, Мохамед Ахзам, Эди Ареллано
Продолжительность: 01:24:10
Качество видео: HDTV [1080p]

Дата мировой премьеры: 12 декабря 2013
Видеокодек: AVC/H.264
Битрейт видео: ~8302 kb/s
Размер кадра: 1920х1080
Аудиокодек: MP2, 2 ch
Битрейт аудио: 192 kb/s
Сэмпл: Ссылка

MediaInfo

Общее
Идентификатор : 0 (0x0)
Полное имя : Пленники солнца.ts
Формат : MPEG-TS
Размер файла : 5,25 Гбайт
Продолжительность : 1 ч. 24 м.
Режим общего битрейта : Переменный
Общий поток : 8937 Кбит/сек
Видео
Идентификатор : 4096 (0x1000)
Идентификатор меню : 1 (0x1)
Формат : AVC
Формат/Информация : Advanced Video Codec
Профиль формата : Main@L4.1
Параметр CABAC формата : Да
Параметр ReFrames формата : 2 кадра
Идентификатор кодека : 27
Продолжительность : 1 ч. 24 м.
Битрейт : 8302 Кбит/сек
Ширина : 1920 пикселей
Высота : 1080 пикселей
Соотношение сторон : 16:9
Частота кадров : 25,000 кадров/сек
Цветовое пространство : YUV
Субдискретизация насыщенности : 4:2:0
Битовая глубина : 8 бит
Тип развёртки : Прогрессивная
Бит/(Пиксели*Кадры) : 0.160
Размер потока : 4,88 Гбайт (93%)
Аудио
Идентификатор : 4608 (0x1200)
Идентификатор меню : 1 (0x1)
Формат : MPEG Audio
Версия формата : Version 1
Профиль формата : Layer 2
Идентификатор кодека : 4
Продолжительность : 1 ч. 24 м.
Вид битрейта : Постоянный
Битрейт : 192 Кбит/сек
Каналы : 2 канала
Частота : 48,0 КГц
Метод сжатия : С потерями
Размер потока : 116 Мбайт (2%)
Скриншоты:

[Цитировать]



Показать сообщения:    

Текущее время: 10-Дек 08:04

Часовой пояс: UTC + 3


Вы не можете начинать темы
Вы не можете отвечать на сообщения
Вы не можете редактировать свои сообщения
Вы не можете удалять свои сообщения
Вы не можете голосовать в опросах
Вы не можете прикреплять файлы к сообщениям
Вы не можете скачивать файлы

!ВНИМАНИЕ!
Сайт не предоставляет электронные версии произведений, а занимается лишь коллекционированием и каталогизацией ссылок, присылаемых и публикуемых на форуме нашими читателями. Если вы являетесь правообладателем какого-либо представленного материала и не желаете, чтобы ссылка на него находилась в нашем каталоге, свяжитесь с нами, и мы незамедлительно удалим ее. Файлы для обмена на трекере предоставлены пользователями сайта, и администрация не несет ответственности за их содержание. Просьба не заливать файлы, защищенные авторскими правами, а также файлы нелегального содержания!