[ Сегодня идет свободное скачивание без начисления Download ]


Статистика раздачи
Нет
 
   
 
Top  
 
 
-Идеальное убийство / A Perfect Murder (1998) BDRip- Год выпуска: 1998
Жанр: Триллер, Драма, Криминал
Производство: США / Warner Bros. Pictures
Описание фильма:
Преуспевающий бизнесмен Стивен Тэйлор, испытывающий серьезные трудности на работе, грозящие ему разорением, узнает, что жена Эмили, женщина очень богатая, изменяет ему с художником Дэвидом.
Наведя справки, он узнает, что Дэвид вовсе не художник, а брачный аферист с солидным «послужным» списком и рядом отсидок в тюрьме. Встретившись с Дэвидом, Стивен предлагает ему 500 тысяч долларов за убийство собственной жены...
Режиссер: Эндрю Дэвис
Актеры: Майкл Дуглас, Гвинет Пэлтроу, Вигго Мортенсен, Дэвид Суше, Сарита Чоудхури, Майкл П. Моран, Новелла Нельсон, Констанс Тауэрс, Уилл Лиман, Маив МакГуайр
Продолжительность: 01:47:26
Качество видео: BDRip
Перевод: Дублированный, Многоголосый закадровый, Одноголосый закадровый
Язык субтитров: Русский, Английский
Вид субтитров: Вшитые отключаемые

Видеокодек: MPEG-4 AVC/H.264
Битрейт видео: ~13,4 Mbps
Размер кадра: 1920 x 1080
Аудио 1: Русский, AC3 5.1, 384 kbps, 48 kHz (Дубляж, Мост Видео)
Аудио 2: Русский, AC3 2.0, 192 kbps, 48 kHz (Дубляж, Варус Видео)
Аудио 3: Русский, AC3 2.0, 192 kbps, 48 kHz (MVO, ТК "Россия")
Аудио 4: Русский, DTS 5.1, 1509 kbps, 48 kHz (AVO, Ю.Живов)
Аудио 5: Украинский, AC3 5.1, 448 kbps, 48 kHz (MVO, ТВ+ ICTV)
Аудио 6: Украинский, AC3 5.1, 448 kbps, 48 kHz (MVO, Так Треба Продакшн)
Аудио 7: Английский, DTS 5.1, 1509 kbps, 48 kHz (Оригинал)
Аудио 8: Английский, AC3 2.0, 192 kbps, 48 kHz (Комментарий)
Сэмпл: Ссылка

Рецензия:

Идеальный триллер
Любой триллер имеет некоторые аспекты, по которым можно судить о его успешности: он должен интриговать, захватывать и вызывать у зрителя чувства неожиданности. Так вот, данная картина полностью соответствует всем параметрам. Более того, вкупе с музыкой, актерами и атмосферой, я могу сказать, что получился идеальный образец психологического триллера с элементами детектива.
Любовный треугольник здесь не совсем обычный: против героини жены выступают сразу и муж и любовник, планируя убийство, кажущееся отлично продуманным. В ночь, когда главное событие должно свершиться, мы с напряжением и замиранием ждем того момента, когда же Эмили встанет из ванной, подойдет к телефону и… Однако убийца оказывается далеко не профессионалом, и находчивой жене удается самой вонзить кухонный прибор ему в горло. Тут-то и начинается загвоздка. События закручиваются, переплетаются, зритель следит за новыми ходами героев и гадает: чем же закончится картина?
Майкл Дуглас великолепен, и это очередная роль, доказывающая данный факт. Его типаж в «Идеальном убийстве»: хладнокровный и расчетливый злодей, со стальным взглядом, но при этом с роскошным обаянием. Непоколебимый жестокий взгляд делает его героя еще более бесчувственным, особенно в сцене за карточным столом, когда он принимает непринужденный вид, зная, что его жену убивают. Гвинет Пэлтроу так же хороша, отлично вжилась в роль жертвы и справилась с ней. Вигго Мортенсена я открыла для себя впервые. Смотрится он не столь блистательно на фоне Дугласа, тем не менее облик бедного художника, превращающегося в афериста, ему вполне подходит.
Советую этот фильм любителям жанра, в нем ёмко уместилось всё, что полагается хорошему качественному триллеру, поэтому ценителям он должен понравиться.

MediaInfo:

Общее
Уникальный идентификатор : 244249792712555552918201748843648387485 (0xB7C0CC8944B1BCBF989AC1A4B41A099D)
Полное имя : D:\Films\A.Perfect.Murder.1998.BDRip.1080p.mkv
Формат : Matroska
Версия формата : Version 2
Размер файла : 13,7 Гбайт
Продолжительность : 1 ч. 47 м.
Общий поток : 18,2 Мбит/сек
Дата кодирования : UTC 2014-07-20 08:37:18
Программа кодирования : mkvmerge v5.2.0 ('I can't explain') built on Dec 18 2011 18:12:03
Библиотека кодирования : libebml v1.2.3 + libmatroska v1.3.0
Видео
Идентификатор : 1
Формат : AVC
Формат/Информация : Advanced Video Codec
Профиль формата : High@L4.1
Параметр CABAC формата : Да
Параметр ReFrames формата : 4 кадра
Идентификатор кодека : V_MPEG4/ISO/AVC
Продолжительность : 1 ч. 47 м.
Битрейт : 13,4 Мбит/сек
Ширина : 1920 пикселей
Высота : 1080 пикселей
Соотношение сторон : 16:9
Режим частоты кадров : Постоянный
Частота кадров : 23,976 кадра/сек
Цветовое пространство : YUV
Субдискретизация насыщенности : 4:2:0
Битовая глубина : 8 бит
Тип развёртки : Прогрессивная
Бит/(Пиксели*Кадры) : 0.269
Размер потока : 9,74 Гбайт (71%)
Библиотека кодирования : x264 core 125 r2200 999b753
Настройки программы : cabac=1 / ref=4 / deblock=1:-3:-3 / analyse=0x3:0x133 / me=umh / subme=11 / psy=1 / psy_rd=1.05:0.00 / mixed_ref=1 / me_range=48 / chroma_me=1 / trellis=2 / 8x8dct=1 / cqm=0 / deadzone=21,11 / fast_pskip=0 / chroma_qp_offset=-2 / threads=12 / lookahead_threads=2 / sliced_threads=0 / nr=0 / decimate=1 / interlaced=0 / bluray_compat=0 / constrained_intra=0 / bframes=9 / b_pyramid=2 / b_adapt=2 / b_bias=0 / direct=3 / weightb=1 / open_gop=0 / weightp=2 / keyint=250 / keyint_min=23 / scenecut=40 / intra_refresh=0 / rc_lookahead=40 / rc=2pass / mbtree=0 / bitrate=13350 / ratetol=1.0 / qcomp=0.60 / qpmin=0 / qpmax=69 / qpstep=4 / cplxblur=20.0 / qblur=0.5 / vbv_maxrate=62500 / vbv_bufsize=78125 / nal_hrd=none / ip_ratio=1.40 / pb_ratio=1.30 / aq=1:0.80
Язык : English
Default : Да
Forced : Нет
Аудио #1
Идентификатор : 2
Формат : AC-3
Формат/Информация : Audio Coding 3
Расширение режима : CM (complete main)
Параметр Endianness формата : Big
Идентификатор кодека : A_AC3
Продолжительность : 1 ч. 47 м.
Вид битрейта : Постоянный
Битрейт : 384 Кбит/сек
Каналы : 6 каналов
Расположение каналов : Front: L C R, Side: L R, LFE
Частота : 48,0 КГц
Битовая глубина : 16 бит
Метод сжатия : С потерями
Размер потока : 295 Мбайт (2%)
Заголовок : DUB Мост Видео
Язык : Russian
Default : Да
Forced : Нет
Аудио #2
Идентификатор : 3
Формат : AC-3
Формат/Информация : Audio Coding 3
Расширение режима : CM (complete main)
Параметр Endianness формата : Big
Идентификатор кодека : A_AC3
Продолжительность : 1 ч. 47 м.
Вид битрейта : Постоянный
Битрейт : 192 Кбит/сек
Каналы : 2 канала
Расположение каналов : Front: L R
Частота : 48,0 КГц
Битовая глубина : 16 бит
Метод сжатия : С потерями
Размер потока : 148 Мбайт (1%)
Заголовок : DUB Варус Видео
Язык : Russian
Default : Нет
Forced : Нет
Аудио #3
Идентификатор : 4
Формат : AC-3
Формат/Информация : Audio Coding 3
Расширение режима : CM (complete main)
Параметр Endianness формата : Big
Идентификатор кодека : A_AC3
Продолжительность : 1 ч. 47 м.
Вид битрейта : Постоянный
Битрейт : 192 Кбит/сек
Каналы : 2 канала
Расположение каналов : Front: L R
Частота : 48,0 КГц
Битовая глубина : 16 бит
Метод сжатия : С потерями
Размер потока : 148 Мбайт (1%)
Заголовок : MVO ТК "Россия"
Язык : Russian
Default : Нет
Forced : Нет
Аудио #4
Идентификатор : 5
Формат : DTS
Формат/Информация : Digital Theater Systems
Режим : 16
Параметр Endianness формата : Big
Идентификатор кодека : A_DTS
Продолжительность : 1 ч. 47 м.
Вид битрейта : Постоянный
Битрейт : 1509 Кбит/сек
Каналы : 6 каналов
Расположение каналов : Front: L C R, Side: L R, LFE
Частота : 48,0 КГц
Битовая глубина : 24 бит
Метод сжатия : С потерями
Размер потока : 1,13 Гбайт (8%)
Заголовок : AVO Ю. Живов
Язык : Russian
Default : Нет
Forced : Нет
Аудио #5
Идентификатор : 6
Формат : AC-3
Формат/Информация : Audio Coding 3
Расширение режима : CM (complete main)
Параметр Endianness формата : Big
Идентификатор кодека : A_AC3
Продолжительность : 1 ч. 47 м.
Вид битрейта : Постоянный
Битрейт : 448 Кбит/сек
Каналы : 6 каналов
Расположение каналов : Front: L C R, Side: L R, LFE
Частота : 48,0 КГц
Битовая глубина : 16 бит
Метод сжатия : С потерями
Размер потока : 344 Мбайт (2%)
Заголовок : MVO ТВ+
Язык : Ukrainian
Default : Нет
Forced : Нет
Аудио #6
Идентификатор : 7
Формат : AC-3
Формат/Информация : Audio Coding 3
Расширение режима : CM (complete main)
Параметр Endianness формата : Big
Идентификатор кодека : A_AC3
Продолжительность : 1 ч. 47 м.
Вид битрейта : Постоянный
Битрейт : 448 Кбит/сек
Каналы : 6 каналов
Расположение каналов : Front: L C R, Side: L R, LFE
Частота : 48,0 КГц
Битовая глубина : 16 бит
Метод сжатия : С потерями
Размер потока : 344 Мбайт (2%)
Заголовок : MVO Так Треба Продакшн
Язык : Ukrainian
Default : Нет
Forced : Нет
Аудио #7
Идентификатор : 8
Формат : DTS
Формат/Информация : Digital Theater Systems
Режим : 16
Параметр Endianness формата : Big
Идентификатор кодека : A_DTS
Продолжительность : 1 ч. 47 м.
Вид битрейта : Постоянный
Битрейт : 1509 Кбит/сек
Каналы : 6 каналов
Расположение каналов : Front: L C R, Side: L R, LFE
Частота : 48,0 КГц
Битовая глубина : 24 бит
Метод сжатия : С потерями
Размер потока : 1,13 Гбайт (8%)
Язык : English
Default : Нет
Forced : Нет
Аудио #8
Идентификатор : 9
Формат : AC-3
Формат/Информация : Audio Coding 3
Профиль формата : Dolby Digital
Расширение режима : CM (complete main)
Параметр Endianness формата : Big
Идентификатор кодека : A_AC3
Продолжительность : 1 ч. 47 м.
Вид битрейта : Постоянный
Битрейт : 192 Кбит/сек
Каналы : 2 канала
Расположение каналов : Front: L R
Частота : 48,0 КГц
Битовая глубина : 16 бит
Метод сжатия : С потерями
Размер потока : 148 Мбайт (1%)
Заголовок : Commentary
Язык : English
Default : Нет
Forced : Нет
Текст #1
Идентификатор : 10
Формат : UTF-8
Идентификатор кодека : S_TEXT/UTF8
Идентификатор кодека/Информация : UTF-8 Plain Text
Заголовок : Forced
Язык : Russian
Default : Да
Forced : Нет
Текст #2
Идентификатор : 11
Формат : UTF-8
Идентификатор кодека : S_TEXT/UTF8
Идентификатор кодека/Информация : UTF-8 Plain Text
Заголовок : Full
Язык : Russian
Default : Нет
Forced : Нет
Текст #3
Идентификатор : 12
Формат : UTF-8
Идентификатор кодека : S_TEXT/UTF8
Идентификатор кодека/Информация : UTF-8 Plain Text
Язык : English
Default : Нет
Forced : Нет
Текст #4
Идентификатор : 13
Формат : UTF-8
Идентификатор кодека : S_TEXT/UTF8
Идентификатор кодека/Информация : UTF-8 Plain Text
Заголовок : SDH
Язык : English
Default : Нет
Forced : Нет
Меню
00:00:00.000 : en:00:00:00.000
00:02:14.009 : en:00:02:14.009
00:08:09.864 : en:00:08:09.864
00:10:53.820 : en:00:10:53.820
00:13:18.339 : en:00:13:18.339
00:19:59.657 : en:00:19:59.657
00:22:32.226 : en:00:22:32.226
00:27:28.897 : en:00:27:28.897
00:32:49.676 : en:00:32:49.676
00:37:12.480 : en:00:37:12.480
00:39:03.007 : en:00:39:03.007
00:41:31.823 : en:00:41:31.823
00:45:06.078 : en:00:45:06.078
00:48:25.903 : en:00:48:25.903
00:51:29.086 : en:00:51:29.086
00:55:51.139 : en:00:55:51.139
00:58:50.944 : en:00:58:50.944
01:03:31.266 : en:01:03:31.266
01:06:28.818 : en:01:06:28.818
01:09:44.389 : en:01:09:44.389
01:10:55.501 : en:01:10:55.501
01:14:41.227 : en:01:14:41.227
01:18:36.503 : en:01:18:36.503
01:22:09.424 : en:01:22:09.424
01:28:31.473 : en:01:28:31.473
01:31:09.339 : en:01:31:09.339
01:35:01.696 : en:01:35:01.696
01:38:56.097 : en:01:38:56.097
01:40:49.043 : en:01:40:49.043
01:42:20.301 : en:01:42:20.301
01:43:22.696 : en:01:43:22.696
01:44:29.013 : en:01:44:29.013
-Скриншоты:
-Время раздачи: С 8:00 до 22:00 до 5 скачавших

[Цитировать]



Показать сообщения:    

Текущее время: 10-Дек 23:29

Часовой пояс: UTC + 3


Вы не можете начинать темы
Вы не можете отвечать на сообщения
Вы не можете редактировать свои сообщения
Вы не можете удалять свои сообщения
Вы не можете голосовать в опросах
Вы не можете прикреплять файлы к сообщениям
Вы не можете скачивать файлы

!ВНИМАНИЕ!
Сайт не предоставляет электронные версии произведений, а занимается лишь коллекционированием и каталогизацией ссылок, присылаемых и публикуемых на форуме нашими читателями. Если вы являетесь правообладателем какого-либо представленного материала и не желаете, чтобы ссылка на него находилась в нашем каталоге, свяжитесь с нами, и мы незамедлительно удалим ее. Файлы для обмена на трекере предоставлены пользователями сайта, и администрация не несет ответственности за их содержание. Просьба не заливать файлы, защищенные авторскими правами, а также файлы нелегального содержания!