[ Сегодня идет свободное скачивание без начисления Download ]


Статистика раздачи
Нет
 
   
 
Top  
 
 
-Дивергент / Divergent (2014) BDRip-«Ты опасен, если ты другой»- Год выпуска: 2014
Производство: США / Red Wagon Productions, Summit Entertainment
Жанр: Фантастика, Мелодрама, Приключения
Перевод: Дублированный (iTunes)
Субтитры: Вшитые отключаемые
Язык субтитров: Русский, Английский
Дата мировой премьеры: 18 марта 2014
Дата российской премьеры: 10 апреля 2014, «Централ Партнершип»
Дата выхода DVD релиза: 19 августа 2014, «Lizard Cinema Trade»
Дата выхода Blu-Ray релиза: 19 августа 2014, «Lizard Cinema Trade»
Режиссер: Нил Бёргер
Продюсер: Люси Фишер, Пуйа Шахбазян, Дуглас Уик
Актеры: Шейлин Вудли, Тео Джеймс, Эшли Джадд, Джай Кортни, Рэй Стивенсон, Зои Кравиц, Майлз Теллер, Тони Голдуин, Мэгги Кью, Кейт Уинслет
Описание фильма:
Действие развивается на Земле в будущем, в деспотичном Чикаго. Все подростки, достигшие 16 лет, обязаны выбрать одну из пяти фракций и присоединиться к ней на всю оставшуюся жизнь. Каждая фракция представляет определенное качество: Искренность, Отречение, Бесстрашие, Дружелюбие и Эрудиция.

Продолжительность: 02:19:40
Качество видео: BDRip
Видеокодек: MPEG-4 AVC/H.264
Битрейт видео: ~4645 Kbps
Размер кадра: 1280 х 534
Аудио 1: Русский, AC3 5.1, 384 kbps, 48 kHz
Аудио 2: Английский, DTS 5.1, 1509 kbps, 48 kHz
Сэмпл: Скачать

Знаете ли вы, что...

• Фильм снят по мотивам романа Вероники Рот «Избранная» (Divergent, 2011).
• До начала съемок весь актерский состав прошел двухмесячный период подготовки в военном лагере для новобранцев.
• Лукас Тилл, Джек Рейнор, Джереми Ирвин, Алекс Петтифер, Брентон Туэйтес, Александр Людвиг и Люк Брейси рассматривались на главную мужскую роль.
• Первоначально Майлз Теллер пробовался на роль, которая в итоге досталась Тео Джеймсу. Теллеру сказали, что он не получит роль, но через несколько месяцев после его прослушивания продюсеры посмотрели фильм «Захватывающее время» (2013) и были настолько впечатлены, что позвонили Теллеру и предложили ему роль Эрика (ее в итоге исполнил Джай Кортни). Теллер отказался, посчитав, что не справится с ролью. Затем ему предложили роль Питера, на которую он все же согласился, но только после того, как Шейлин Вудли отправила ему сообщение с просьбой согласиться на эту роль, чтобы они могли снова поработать вместе.
• Для Шейлин Вудли и Майлза Теллера было проблематично снимать сцену их драки из-за их тесной дружбы. Во время съемок Вудли даже обращалась к Теллеру, называя его «Саттер» (это имя его персонажа из фильма «Захватывающее время» (2013), в котором вместе с Вудли они играли влюбленную пару).
• Кейт Уинслет была на пятом месяце беременности во время съемок. Несмотря на то, что актриса провела на съемочной площадке всего 4 недели, ее живот вырос настолько, что ей пришлось носить в руках различные папки и планшеты, чтобы ее беременность осталась незамеченной в кадре.
• Звук, который издает Питер (Майлз Теллер), когда Трис (Шейлин Вудли) бьет его по горлу, является настоящим. Вудли боялась сделать больно Теллеру, и поэтому поначалу она действовала робко. Но на протяжении съемок Теллер и Вудли становились все более агрессивными. В итоге во время одного дубля Вудли на самом деле попала Теллеру по горлу, чего тот совершенно не ожидал. Этот дубль вошел в финальную версию фильма.
• В фильме «Виноваты звезды» (2014) Шейлин Вудли и Энсел Эльгорт сыграли влюбленную пару, а в этом фильме они играют брата и сестру.
• При создании татуировки на спине персонажа Тео Джеймса, художник-постановщик Энди Николсон черпал вдохновение в абстрактном советском конструктивистском искусстве 1920-х годов. Для нанесения временной татуировки специальная копировальная бумага была разрезана приблизительно на 40 частей, которые вместе образовывали «гигантский пазл». Затем три человека на протяжении более чем трех часов собирали рисунок на спине Джеймса. Во время процедуры актер слушал джазовую музыку.
• В рамках подготовки к своей роли Шейлин Вудли несколько дней посещала тренировки по обращению с огнестрельным оружием, которые проводила «Охранная группа разумной защиты» (Discreet Protection Security Group/DPS group). Инструкторы из этой группы – реальные офицеры департамента полиции Лос-Анджелеса: Чарльз Уандер (Charles Wunder) и Джейми МакБрайд (Jamie McBride). Это те же самые офицеры, на которых был частично основан сценарий фильма «Патруль» (2012).
• Большинство оружия используемого в фильме – это макеты, выстрелы которых были нарисованы при помощи компьютерной графики. Однако футуристичный револьвер в сцене галлюцинаций персонажей Шейлин Вудли и Тео Джеймса – это настоящий револьвер Chiappa «Rhino».
• Во время внестудийных съемок создатели фильма во избежание утечки информации использовали название «Catbird» (Дрозд).
• Изначально создатели фильма видели в роли Тобиаса Итона Джереми Ирвина, но он отказался от этой роли, сказав, что не хочет, чтобы в нем видели кумира подростков.
• Аарон Экхарт мог получить роль Эндрю, но он покинул проект еще до начала съемок. В итоге эта роль досталась Тони Голдуину.

Ошибки в фильме

• Когда Трис и Тобиас Итон взбираются на колесо обозрения, одна из ступенек ломается под ногой Трис. Однако в следующем кадре, когда они продолжают свой подъем, все ступеньки на месте.
• Когда руку Жанин прибивает к экрану компьютера ножом, который бросает в нее Трис, можно заметить, как ручка ножа то поднимается вверх, то опускается вниз, когда Жанин кричит.
• Когда Четыре вкалывает сыворотку себе и Трис для обучения прохождения страхов, шею после укола показывают крупным планом и следа от укола нет.

MediaInfo:

Общее
Уникальный идентификатор : 185354332413219625485289495022171873396 (0x8B71F227441C85ADAA12745B00E06074)
Полное имя : D:\Films\Divergent.2014.BDRip.720p.mkv
Формат : Matroska
Версия формата : Version 2
Размер файла : 6,38 Гбайт
Продолжительность : 2 ч. 19 м.
Общий поток : 6538 Кбит/сек
Дата кодирования : UTC 2014-07-23 09:22:03
Программа кодирования : mkvmerge v5.2.0 ('I can't explain') built on Dec 18 2011 18:12:03
Библиотека кодирования : libebml v1.2.3 + libmatroska v1.3.0
Видео
Идентификатор : 1
Формат : AVC
Формат/Информация : Advanced Video Codec
Профиль формата : High@L4.1
Параметр CABAC формата : Да
Параметр ReFrames формата : 10 кадров
Идентификатор кодека : V_MPEG4/ISO/AVC
Продолжительность : 2 ч. 19 м.
Битрейт : 4645 Кбит/сек
Ширина : 1280 пикселей
Высота : 534 пикселя
Соотношение сторон : 2,40:1
Режим частоты кадров : Постоянный
Частота кадров : 23,976 кадра/сек
Цветовое пространство : YUV
Субдискретизация насыщенности : 4:2:0
Битовая глубина : 8 бит
Тип развёртки : Прогрессивная
Бит/(Пиксели*Кадры) : 0.283
Размер потока : 4,40 Гбайт (69%)
Библиотека кодирования : x264 core 138 r2356 a1d3d17
Настройки программы : cabac=1 / ref=10 / deblock=1:-3:-3 / analyse=0x3:0x113 / me=umh / subme=10 / psy=1 / psy_rd=1.00:0.05 / mixed_ref=1 / me_range=32 / chroma_me=1 / trellis=2 / 8x8dct=1 / cqm=0 / deadzone=21,11 / fast_pskip=0 / chroma_qp_offset=-2 / threads=18 / lookahead_threads=1 / sliced_threads=0 / nr=0 / decimate=1 / interlaced=0 / bluray_compat=0 / constrained_intra=0 / bframes=4 / b_pyramid=2 / b_adapt=2 / b_bias=0 / direct=3 / weightb=1 / open_gop=0 / weightp=2 / keyint=250 / keyint_min=23 / scenecut=40 / intra_refresh=0 / rc=2pass / mbtree=0 / bitrate=4645 / ratetol=1.0 / qcomp=0.70 / qpmin=0 / qpmax=69 / qpstep=4 / cplxblur=20.0 / qblur=0.5 / ip_ratio=1.40 / pb_ratio=1.30 / aq=2:1.00
Язык : English
Default : Да
Forced : Нет
Аудио #1
Идентификатор : 2
Формат : AC-3
Формат/Информация : Audio Coding 3
Расширение режима : CM (complete main)
Параметр Endianness формата : Big
Идентификатор кодека : A_AC3
Продолжительность : 2 ч. 19 м.
Вид битрейта : Постоянный
Битрейт : 384 Кбит/сек
Каналы : 6 каналов
Расположение каналов : Front: L C R, Side: L R, LFE
Частота : 48,0 КГц
Битовая глубина : 16 бит
Метод сжатия : С потерями
Размер потока : 384 Мбайт (6%)
Заголовок : DUB [iTunes]
Язык : Russian
Default : Да
Forced : Нет
Аудио #2
Идентификатор : 3
Формат : DTS
Формат/Информация : Digital Theater Systems
Режим : 16
Параметр Endianness формата : Big
Идентификатор кодека : A_DTS
Продолжительность : 2 ч. 19 м.
Вид битрейта : Постоянный
Битрейт : 1509 Кбит/сек
Каналы : 6 каналов
Расположение каналов : Front: L C R, Side: L R, LFE
Частота : 48,0 КГц
Битовая глубина : 24 бит
Метод сжатия : С потерями
Размер потока : 1,47 Гбайт (23%)
Язык : English
Default : Нет
Forced : Нет
Текст #1
Идентификатор : 4
Формат : UTF-8
Идентификатор кодека : S_TEXT/UTF8
Идентификатор кодека/Информация : UTF-8 Plain Text
Язык : Russian
Default : Нет
Forced : Нет
Текст #2
Идентификатор : 5
Формат : UTF-8
Идентификатор кодека : S_TEXT/UTF8
Идентификатор кодека/Информация : UTF-8 Plain Text
Язык : English
Default : Нет
Forced : Нет
----------------- X264-------------
x264 [info]: frame I:2264 Avg QP:10.94 size:114455
x264 [info]: frame P:60278 Avg QP:13.30 size: 41265
x264 [info]: frame B:138387 Avg QP:15.60 size: 15293
-Скриншоты: -Время раздачи: С 8:00 до 22:00 до 5 скачавших

[Цитировать]



Показать сообщения:    

Текущее время: 09-Дек 01:10

Часовой пояс: UTC + 3


Вы не можете начинать темы
Вы не можете отвечать на сообщения
Вы не можете редактировать свои сообщения
Вы не можете удалять свои сообщения
Вы не можете голосовать в опросах
Вы не можете прикреплять файлы к сообщениям
Вы не можете скачивать файлы

!ВНИМАНИЕ!
Сайт не предоставляет электронные версии произведений, а занимается лишь коллекционированием и каталогизацией ссылок, присылаемых и публикуемых на форуме нашими читателями. Если вы являетесь правообладателем какого-либо представленного материала и не желаете, чтобы ссылка на него находилась в нашем каталоге, свяжитесь с нами, и мы незамедлительно удалим ее. Файлы для обмена на трекере предоставлены пользователями сайта, и администрация не несет ответственности за их содержание. Просьба не заливать файлы, защищенные авторскими правами, а также файлы нелегального содержания!