[ Сегодня идет свободное скачивание без начисления Download ]


Статистика раздачи
Нет
 
   
 
Top  
 
 
-Билет в один конец (2012) HDRemux
«Жить чтобы умереть чтобы жить»
- Год выпуска: 2012
Жанр: Фантастика, Триллер
Описание фильма:
У героини фильма Ивы погибает дочь. Её сбивает машина. На похоронах Славик, друг Ивы предлагает ей увидеть дочь. Это возможно при помощи некой машины, которую изобрёл Никола Тесла — внук знаменитого Теслы. Машина может замкнуть временные кольца и тогда «ушедший» и тот, кто за ним пришёл, могут оказаться точно в том месте, где умер человек, и остановить смерть. Но у машины есть побочный эффект. Пребывая в магнитном поле, сгенерированным установкой, человек стремительно стареет. Одна минута пребывания в поле приравнивается к одному году жизни. Ива подписывает согласие на участие в «погружении»…
Режиссер: Павел Дудин
Продюсер: Павел Дудин
Актеры: Ирина Юсупова, Александр Хващинский, Михаил Ларионов, Настя Суворкина -в роли Яны, Сергей Холмогоров, Алиса Мелёхина, Евгений Щетинин
Внимание: Данный фильм выпущен в свободную дистрибуцию под патронажем общества "FREE MOVIE WORLD"-объединение кинопроизводителей и зрителей основанное на желании создать систему свободной независимой дистрибуции кино. "FREE MOVIE WORLD" - поддерживает распространение кино через торрент-сети, онлайн просмотры и другие свободные площадки. Кинопроизводители со всего мира вступившие в общество не приветствуют пиратство, а поддерживают добровольную идею и союз, построенный производителями и зрителями, где одни снимают кино и предоставляют зрителю право жертвовать любые суммы после просмотра фильма, а не как сейчас до, и все собранные таким образом деньги производители направляют на съёмки новых фильмов которые так же выпускаются в свободную дистрибуцию. Общество "FREE MOVIE WORLD" - было образовано в начале этого года Российскими независимыми производителями и в него вошли уже производители США и Европы. Любой желающий может вступить в общество. СМОТРИ КИНО - БУДЬ СВОБОДЕН!

Продолжительность: 01:21:14
Качество видео: HDRemux
Язык субтитров: Английские (неотключаемые)
Видео: MPEG-4 AVC/H.264, 1920x1080 (16:9), 25.000 fps, 31734 Kbps (0.612 bit/pixel)
Аудио: AAC-LC, 48.0 KHz, 2 ch, 192 Kbps, VBR

Дополнительная информация:

Бюджет фильма всего 28.000 долларов
Фильм имеет ряд международных призов и наград включая приз за спец эффекты фестиваля "Horrorquest" спонсор 20 век фокс США и "Shokerfest" в 2012 году это был единственный фильм представлюящий Россию в жанре фантастика и триллеры на международных независимых фестивалей.
Фильмом заинтересовались зарубежные дистрибьюторы.
"Билет в один конец" снят независимой компанией "Monater film", которая благодаря фильму "Билет в один конец" получила ряд предложений по сотрудничеству с иностранными дистрибуторами.
Сейчас "Monster film" входит в "FREE MOVIE WORLD" - общество поддерживающее идею свободной дистрибуции.

Mediainfo

Полное имя                               : D:\BVK1920Х1080.mp4
Формат                                   : MPEG-4
Профиль формата                          : Base Media / Version 2
Идентификатор кодека                     : mp42
Размер файла                             : 18,1 Гбайт
Продолжительность                        : 1 ч. 21 м.
Режим общего битрейта                    : Переменный
Общий поток                              : 31,9 Мбит/сек
Дата кодирования                         : UTC 2014-07-24 00:17:14
Дата пометки                             : UTC 2014-07-24 00:41:25
©TIM                                     : 00:00:00:00
©TSC                                     : 25
©TSZ                                     : 1
Видео
Идентификатор                            : 1
Формат                                   : AVC
Формат/Информация                        : Advanced Video Codec
Профиль формата                          : [url=mailto:Main@L4.2]Main@L4.2[/url]
Параметр CABAC формата                   : Да
Параметр ReFrames формата                : 3 кадра
Идентификатор кодека                     : avc1
Идентификатор кодека/Информация          : Advanced Video Coding
Продолжительность                        : 1 ч. 21 м.
Битрейт                                  : 31,7 Мбит/сек
Ширина                                   : 1920 пикселей
Высота                                   : 1080 пикселей
Соотношение сторон                       : 16:9
Режим частоты кадров                     : Переменный
Частота кадров                           : 25,000 кадров/сек
Минимальная частота кадров               : 25,000 кадров/сек
Максимальная частота кадров              : 25,025 кадров/сек
Стандарт вещания                         : PAL
Цветовое пространство                    : YUV
Субдискретизация насыщенности            : 4:2:0
Битовая глубина                          : 8 бит
Тип развёртки                            : Прогрессивная
Бит/(Пиксели*Кадры)                      : 0.612
Размер потока                            : 18,0 Гбайт (99%)
Язык                                     : English
Дата кодирования                         : UTC 2014-07-24 00:17:14
Дата пометки                             : UTC 2014-07-24 00:17:14
mdhd_Duration                            : 4874280
Аудио
Идентификатор                            : 2
Формат                                   : AAC
Формат/Информация                        : Advanced Audio Codec
Профиль формата                          : LC
Идентификатор кодека                     : 40
Продолжительность                        : 1 ч. 21 м.
Продолжительность оригинала              : 1 ч. 21 м.
Вид битрейта                             : Переменный
Битрейт                                  : 192 Кбит/сек
Максимальный битрейт                     : 302 Кбит/сек
Каналы                                   : 2 канала
Расположение каналов                     : Front: L R
Частота                                  : 48,0 КГц
Метод сжатия                             : С потерями
Размер потока                            : 110 Мбайт (1%)
Размер потока оригинала                  : 110 Мбайт (1%)
Язык                                     : English
Дата кодирования                         : UTC 2014-07-24 00:17:14
Дата пометки                             : UTC 2014-07-24 00:17:14
mdhd_Duration                            : 4874326
Скриншоты:

[Цитировать]



Показать сообщения:    

Текущее время: 10-Дек 21:39

Часовой пояс: UTC + 3


Вы не можете начинать темы
Вы не можете отвечать на сообщения
Вы не можете редактировать свои сообщения
Вы не можете удалять свои сообщения
Вы не можете голосовать в опросах
Вы не можете прикреплять файлы к сообщениям
Вы не можете скачивать файлы

!ВНИМАНИЕ!
Сайт не предоставляет электронные версии произведений, а занимается лишь коллекционированием и каталогизацией ссылок, присылаемых и публикуемых на форуме нашими читателями. Если вы являетесь правообладателем какого-либо представленного материала и не желаете, чтобы ссылка на него находилась в нашем каталоге, свяжитесь с нами, и мы незамедлительно удалим ее. Файлы для обмена на трекере предоставлены пользователями сайта, и администрация не несет ответственности за их содержание. Просьба не заливать файлы, защищенные авторскими правами, а также файлы нелегального содержания!