[ Сегодня идет свободное скачивание без начисления Download ]


Статистика раздачи
Нет
 
   
 
Top  
 
 
-Форт Росс: В поисках приключений (2014) WEBRip- Год выпуска: 2014
Производство: Россия, Dreamteam Media
Жанр: Приключения
Режиссер: Юрий Мороз
Продюсер: Дмитрий Харатьян, Сергей Шушанянц
Актеры: Максим Матвеев, Анна Старшенбаум, Лайа Коста, Алексей Кирсанов, Максим Виноградов, Артем Ткаченко, Илья Соболев, Александр Петров, Маруся Климова, Кирилл Плетнёв
Описание фильма:
Раскрыта одна из главных интриг российской истории! Как вышло, что в XIX веке Россия навсегда лишилась своих земель в Северной Америке? Ведь ей принадлежала огромная территория от Аляски до Северной Калифорнии! В поисках ответа группа тележурналистов — интеллектуал Дмитрий, простодушный Фимка и красавица Марго — путешествуют во времени и пространстве, попадая то в царские дворцы, то в вигвамы индейцев.

Дата российской премьеры: 12 июня 2014
Дата выхода DVD релиза: 14 августа 2014
Продолжительность: 01:33:01
Качество видео: WEBRip
Видеокодек: Xvid
Битрейт видео: ~1775 Кбит/с
Размер кадра: 720x304
Аудиокодек: AC3 2.0
Битрейт аудио: 320 Кбит/с
Сэмпл: Скачать

MediaInfo

General
Complete name : \Fort.Ross.2014.WEBRip.1400Mb.avi
Format : AVI
Format/Info : Audio Video Interleave
File size : 1.37 GiB
Duration : 1h 33mn
Overall bit rate : 2 106 Kbps
Writing application : VirtualDubMod 1.5.10.2 (build 2540/release)
Writing library : VirtualDubMod build 2540/release
Video
ID : 0
Format : MPEG-4 Visual
Format profile : Advanced Simple@L5
Format settings, BVOP : 2
Format settings, QPel : No
Format settings, GMC : No warppoints
Format settings, Matrix : Default (MPEG)
Codec ID : XVID
Codec ID/Hint : XviD
Duration : 1h 33mn
Bit rate : 1 776 Kbps
Width : 720 pixels
Height : 304 pixels
Display aspect ratio : 2.35:1
Frame rate : 25.000 fps
Color space : YUV
Chroma subsampling : 4:2:0
Bit depth : 8 bits
Scan type : Progressive
Compression mode : Lossy
Bits/(Pixel*Frame) : 0.325
Stream size : 1.15 GiB (84%)
Writing library : XviD 1.2.1 (UTC 2008-12-04)
Audio
ID : 1
Format : AC-3
Format/Info : Audio Coding 3
Mode extension : CM (complete main)
Codec ID : 2000
Duration : 1h 33mn
Bit rate mode : Constant
Bit rate : 320 Kbps
Channel(s) : 2 channels
Channel positions : Front: L R
Sampling rate : 48.0 KHz
Bit depth : 16 bits
Compression mode : Lossy
Stream size : 213 MiB (15%)
Alignment : Split accross interleaves
Interleave, duration : 40 ms (1.00 video frame)
Interleave, preload duration : 500 ms
Скриншоты: Время раздачи: Пн-Пт с 18:00 до 07:00, Сб-Вс круглосуточно

[Цитировать]

Топик был перенесен из форума Новинки кинопроката в форум Приключения / Исторический
Henkok



Показать сообщения:    

Текущее время: 08-Дек 07:08

Часовой пояс: UTC + 3


Вы не можете начинать темы
Вы не можете отвечать на сообщения
Вы не можете редактировать свои сообщения
Вы не можете удалять свои сообщения
Вы не можете голосовать в опросах
Вы не можете прикреплять файлы к сообщениям
Вы не можете скачивать файлы

!ВНИМАНИЕ!
Сайт не предоставляет электронные версии произведений, а занимается лишь коллекционированием и каталогизацией ссылок, присылаемых и публикуемых на форуме нашими читателями. Если вы являетесь правообладателем какого-либо представленного материала и не желаете, чтобы ссылка на него находилась в нашем каталоге, свяжитесь с нами, и мы незамедлительно удалим ее. Файлы для обмена на трекере предоставлены пользователями сайта, и администрация не несет ответственности за их содержание. Просьба не заливать файлы, защищенные авторскими правами, а также файлы нелегального содержания!