[ Сегодня идет свободное скачивание без начисления Download ]


Статистика раздачи
Нет
 
   
 
Top  
 
 
-Предчувствие / Premonition (2007) BDRemux [1080p]- Год выпуска: 2007
Жанр: Триллер, Фэнтези, Драма
Описание фильма:
У каждого в жизни хоть раз было предчувствие беды. Когда просто знаешь, что скоро произойдет что-то плохое. Домохозяйку Линду сейчас как раз охватило такое предчувствие. Некоторое время спустя шериф города сообщает ей, что ее муж погиб в автокатастрофе. Не зная себя от горя и отчаяния, Линда не находит себе места — она не верит, что такое могло произойти. Проснувшись утром на следующий день, она видит своего мужа целым и невредимым…
Вскоре Линда поймет, что это было не простое предчувствие, и теперь она должна предотвратить трагедию.
Режиссер: Меннан Япо
Актеры: Сандра Буллок, Джулиан МакМахон, Ниа Лонг, Ирен Циглер, Кейт Неллиган, Марк Макколей, Эмбер Валлетта, Питер Стормар, Джуд Чикколелла, Э.Дж. Степлтон, Марк Фамиглетти, Маркус Лайл Браун, Джейсон Дуглас, Дэвид А. Шаффер, Ричи Монтгомери
Продолжительность: 1:36:27
Качество видео: BDRemux
Контейнер: MKV
Перевод: Дублированный

Видеокодек: MPEG-4 AVC/H.264
Битрейт видео: ~26,3 Мбит/сек
Размер кадра: 1920x1080
Аудио 1: Русский Dolby Digital 448 Кбит/сек, 5.1, 48,0 КГц
Аудио 2: Английский Dolby Digital 640 Кбит/сек, 5.1, 48,0 КГц

MediaInfo

Общее
Уникальный идентификатор : 219492072340204393982908260036403838432 (0xA520A2AE0087BBB58B17F5A22AC0BDE0)
Полное имя : H:\Торренты\Premonition 2007 (BD.1080p.h264).mkv
Формат : Matroska
Версия формата : Version 2
Размер файла : 18,8 Гбайт
Продолжительность : 1 ч. 36 м.
Режим общего битрейта : Переменный
Общий поток : 28,0 Мбит/сек
Дата кодирования : UTC 2007-12-03 14:44:25
Программа кодирования : mkvmerge v2.1.0 ('Another Place To Fall') built on Aug 19 2007 13:40:07
Библиотека кодирования : libebml v0.7.7 + libmatroska v0.8.1
Видео
Идентификатор : 1
Формат : AVC
Формат/Информация : Advanced Video Codec
Профиль формата : [email protected]
Параметр CABAC формата : Да
Параметр ReFrames формата : 2 кадра
Параметр GOP формата : M=1, N=10
Идентификатор кодека : V_MPEG4/ISO/AVC
Продолжительность : 1 ч. 36 м.
Вид битрейта : Переменный
Битрейт : 26,3 Мбит/сек
Ширина : 1920 пикселей
Высота : 1080 пикселей
Соотношение сторон : 16:9
Режим частоты кадров : Постоянный
Частота кадров : 23,976 кадра/сек
Цветовое пространство : YUV
Субдискретизация насыщенности : 4:2:0
Битовая глубина : 8 бит
Тип развёртки : Прогрессивная
Бит/(Пиксели*Кадры) : 0.529
Размер потока : 17,7 Гбайт (94%)
Заголовок : Предчувствие
Язык : Russian
Default : Да
Forced : Нет
Аудио #1
Идентификатор : 2
Формат : AC-3
Формат/Информация : Audio Coding 3
Расширение режима : CM (complete main)
Параметр Endianness формата : Big
Идентификатор кодека : A_AC3
Продолжительность : 1 ч. 36 м.
Вид битрейта : Постоянный
Битрейт : 448 Кбит/сек
Каналы : 6 каналов
Расположение каналов : Front: L C R, Side: L R, LFE
Частота : 48,0 КГц
Битовая глубина : 16 бит
Метод сжатия : С потерями
Размер потока : 309 Мбайт (2%)
Заголовок : Предчувствие
Язык : Russian
Default : Да
Forced : Нет
Аудио #2
Идентификатор : 3
Формат : AC-3
Формат/Информация : Audio Coding 3
Расширение режима : CM (complete main)
Параметр Endianness формата : Big
Идентификатор кодека : A_AC3
Продолжительность : 1 ч. 36 м.
Вид битрейта : Постоянный
Битрейт : 640 Кбит/сек
Каналы : 6 каналов
Расположение каналов : Front: L C R, Side: L R, LFE
Частота : 48,0 КГц
Битовая глубина : 16 бит
Метод сжатия : С потерями
Размер потока : 442 Мбайт (2%)
Заголовок : Premonition
Язык : English
Default : Нет
Forced : Нет
Скриншоты:

[Цитировать]



Показать сообщения:    

Текущее время: 06-Дек 20:59

Часовой пояс: UTC + 3


Вы не можете начинать темы
Вы не можете отвечать на сообщения
Вы не можете редактировать свои сообщения
Вы не можете удалять свои сообщения
Вы не можете голосовать в опросах
Вы не можете прикреплять файлы к сообщениям
Вы не можете скачивать файлы

!ВНИМАНИЕ!
Сайт не предоставляет электронные версии произведений, а занимается лишь коллекционированием и каталогизацией ссылок, присылаемых и публикуемых на форуме нашими читателями. Если вы являетесь правообладателем какого-либо представленного материала и не желаете, чтобы ссылка на него находилась в нашем каталоге, свяжитесь с нами, и мы незамедлительно удалим ее. Файлы для обмена на трекере предоставлены пользователями сайта, и администрация не несет ответственности за их содержание. Просьба не заливать файлы, защищенные авторскими правами, а также файлы нелегального содержания!