[ Сегодня идет свободное скачивание без начисления Download ]


Статистика раздачи
Нет
 
   
 
Top  
 
 
-Лунатик 3D / Meng you 3D / Sleepwalker (2011) BDRip [1080p] 3D [Горизонтальная анаморфная стереопара]- Год выпуска: 2011
Производство: Гонконг / Enlight Pictures, Universe Entertainment
Жанр: Детектив, Триллер
Перевод: Одноголосый закадровый, любительский
Озвучка / Автор перевода: datynet
Субтитры: Отсутствуют
Дата мировой премьеры: 23 октября 2011
Режиссер: Оксид Пан
Продюсер: Элвин Лам, Оксид Пан, Дэниэл Лам
Актеры: Кент Чэн, Сыянь Ко, Анджелика Ли, Хи Чинг Пав, Чарли Енг
Описание фильма:
Как может чувствовать себя мать, потерявшая ребёнка? Молодая женщина Йи, владелица швейной фабрики, всё ещё не оправилась после смерти своей маленькой дочери, которую два года назад похитили и убили. На протяжении всего этого времени Йи снится один и тот же сон. Она подозревает, что страдает лунатизмом и подтверждает это. Безумный взгляд, странные сны, ночные прогулки неизвестно куда… Но, возможно, её лунатизм поможет раскрыть похожее преступление с похищением ребёнка.

Продолжительность: 01:44:18
Качество видео: BDRip
Видео: MPEG-4 AVC/H.264, 1920x1080, ~10,5 Мбит/сек, 23,976 кадра/сек, 0.211 Пиксели/Кадры
Аудио: AC-3, 192 Кбит/сек, 2 канала, 48,0 КГц, 16 бит (Русский - Любительский одноголосый ''datynet'')
Сэмпл: Скачать

MediaInfo

Общее
Уникальный идентификатор : 238811844602496456428479083471246189144 (0xB3A97CFE91EB798680E94E2BE193E258)
Полное имя : Sleepwalker.3D.2011.H-SBS.mkv
Формат : Matroska
Версия формата : Version 2
Размер файла : 7,92 Гбайт
Продолжительность : 1 ч. 44 м.
Общий поток : 10,9 Мбит/сек
Дата кодирования : UTC 2014-07-22 07:27:51
Программа кодирования : mkvmerge v4.0.0 ('The Stars were mine') сборка от Jun 6 2010 16:18:42
Библиотека кодирования : libebml v1.0.0 + libmatroska v1.0.0
Видео
Идентификатор : 1
Формат : AVC
Формат/Информация : Advanced Video Codec
Профиль формата : [email protected]
MultiView_Count : 2
MultiView_Layout : Right Eye
Параметр CABAC формата : Да
Параметр ReFrames формата : 4 кадра
Идентификатор кодека : V_MPEG4/ISO/AVC
Продолжительность : 1 ч. 44 м.
Битрейт : 10,5 Мбит/сек
Ширина : 1920 пикселей
Высота : 1080 пикселей
Соотношение сторон : 16:9
Режим частоты кадров : Постоянный
Частота кадров : 23,976 кадра/сек
Цветовое пространство : YUV
Субдискретизация насыщенности : 4:2:0
Битовая глубина : 8 бит
Тип развёртки : Прогрессивная
Бит/(Пиксели*Кадры) : 0.211
Размер потока : 7,63 Гбайт (96%)
Библиотека кодирования : x264 core 132 r2310 76a5c3a
Настройки программы : cabac=1 / ref=4 / deblock=1:-3:-3 / analyse=0x3:0x113 / me=umh / subme=10 / psy=1 / psy_rd=1.00:0.15 / mixed_ref=1 / me_range=32 / chroma_me=1 / trellis=2 / 8x8dct=1 / cqm=0 / deadzone=21,11 / fast_pskip=1 / chroma_qp_offset=-3 / threads=12 / lookahead_threads=1 / sliced_threads=0 / nr=0 / decimate=1 / interlaced=0 / bluray_compat=0 / constrained_intra=0 / bframes=6 / b_pyramid=2 / b_adapt=1 / b_bias=0 / direct=3 / weightb=1 / open_gop=0 / weightp=2 / keyint=250 / keyint_min=23 / scenecut=40 / intra_refresh=0 / rc_lookahead=40 / rc=crf / mbtree=1 / crf=17.0 / qcomp=0.60 / qpmin=10 / qpmax=69 / qpstep=4 / vbv_maxrate=40000 / vbv_bufsize=30000 / crf_max=0.0 / nal_hrd=none / ip_ratio=1.40 / aq=1:1.00
Default : Нет
Forced : Нет
Аудио
Идентификатор : 2
Формат : AC-3
Формат/Информация : Audio Coding 3
Расширение режима : CM (complete main)
Параметр Endianness формата : Big
Идентификатор кодека : A_AC3
Продолжительность : 1 ч. 44 м.
Вид битрейта : Постоянный
Битрейт : 192 Кбит/сек
Каналы : 2 канала
Расположение каналов : Front: L R
Частота : 48,0 КГц
Битовая глубина : 16 бит
Метод сжатия : С потерями
Задержка видео : 24 мс.
Размер потока : 143 Мбайт (2%)
Заголовок : datynet
Язык : Russian
Default : Нет
Forced : Нет
Меню
00:00:00.000 : en:00:00:00.000
00:08:48.528 : en:00:08:48.528
00:17:35.054 : en:00:17:35.054
00:28:03.682 : en:00:28:03.682
00:35:03.101 : en:00:35:03.101
00:47:56.874 : en:00:47:56.874
00:55:14.311 : en:00:55:14.311
01:03:31.808 : en:01:03:31.808
01:11:37.293 : en:01:11:37.293
01:23:56.031 : en:01:23:56.031
01:29:45.380 : en:01:29:45.380
01:39:39.974 : en:01:39:39.974
Скриншоты:

Время раздачи: По возможности 24/7 до первых 10 скачавших

[Цитировать]



Показать сообщения:    

Текущее время: 04-Дек 02:56

Часовой пояс: UTC + 3


Вы не можете начинать темы
Вы не можете отвечать на сообщения
Вы не можете редактировать свои сообщения
Вы не можете удалять свои сообщения
Вы не можете голосовать в опросах
Вы не можете прикреплять файлы к сообщениям
Вы не можете скачивать файлы

!ВНИМАНИЕ!
Сайт не предоставляет электронные версии произведений, а занимается лишь коллекционированием и каталогизацией ссылок, присылаемых и публикуемых на форуме нашими читателями. Если вы являетесь правообладателем какого-либо представленного материала и не желаете, чтобы ссылка на него находилась в нашем каталоге, свяжитесь с нами, и мы незамедлительно удалим ее. Файлы для обмена на трекере предоставлены пользователями сайта, и администрация не несет ответственности за их содержание. Просьба не заливать файлы, защищенные авторскими правами, а также файлы нелегального содержания!