[ Сегодня идет свободное скачивание без начисления Download ]


Статистика раздачи
Нет
 
   
 
Top  
 
 
-Теорема Зеро / The Zero Theorem (2013) BDRip- Год выпуска: 2013
Производство: США, Румыния, Великобритания, Франция / Zephyr Films, Zanuck Independent
Жанр: Фантастика, Триллер, Драма, Комедия
Перевод: Одноголосый закадровый, любительский (PashaUP)
Субтитры: Вшитые отключаемые
Язык субтитров: Русский, Английский
Дата мировой премьеры: 2 сентября 2013
Дата российской премьеры: 3 июля 2014, «Cinema Prestige»
Режиссер: Терри Гиллиам
Продюсер: Николя Картье, Дин Занук, Марк Бакунас
Актеры: Кристоф Вальц, Мелани Тьерри, Дэвид Тьюлис, Лукас Хеджес, Мэтт Дэймон, Бен Уишоу, Тильда Суинтон, Санджив Бхаскар, Ингрид Бису, Маргарита Дойл, Петер Стормаре
Описание фильма:
Эксцентричный компьютерный гений Коэн Лет бьется над неразрешимой теоремой. Благодаря костюму для виртуальной реальности, изобретенному мальчиком Бобом, Лету удается совершить путешествие в скрытое пространство и узнать тайну своей души. Эту разгадку ищет не только он сам, но и таинственный Менеджмент, который правит всем миром посредством всевидящих устройств под названием ManCams.

Продолжительность: 01:46:27
Качество видео: BDRip
Видеокодек: MPEG-4 AVC/H.264
Битрейт видео: ~10,2 Mbps
Размер кадра: 1816 x 1036
Аудио 1: Русский, DTS 5.1, 768 kbps, 48 kHz
Аудио 2: Английский, DTS 5.1, 1509 kbps, 48 kHz
Сэмпл: Скачать

Награды:

Венецианский кинофестиваль, 2013 год
Номинации (1):
Золотой лев

Знаете ли вы, что...

• Автора сценария Пэта Рашина и его жену можно увидеть в одной сцене. Они сидят на заднем плане на скамейке в парке. Его жена читает газету, а Пэт что-то пишет. На самом деле в этот момент он писал слова из сообщений, которые на протяжении всего фильма отображаются в бегущей строке «Mancom Motivational».

Рецензия:

Сущности, смысл, хаос — эти понятия являются ключом к пониманию творчества Терри Гиллиама.
Вы конечно же обращали внимание на то, что практически любой кадр Гиллиама представляет собой чудовищный беспорядок — какие -то громоздкие механизмы, мечущиеся люди, нагромождение предметов, одним словом — хаос. Но выражаясь языком Менеджмента — хаос высокоорганизованный. Здесь нет мелочей, каждая деталь имеет значение. Тусовка в доме Джоби, каждый приглашённый танцует под свою музыку, у каждого свой гаджет — точно подмеченная режиссёром атомизация современного общества, суета и бренность. Убегая от скопления незнакомцев Коэн случайно сталкивается с Менеджментом, который предаётся чтению в тихом месте. Со школьной скамьи известно, что книга — кладезь знаний и мудрости, чтение книг не терпит суеты, прекрасное должно быть величаво… Таким образом Менеджмент занят поиском ответов на экзистенциальные вопросы, пока суетные людишки пытаются удовлетворить потребности, расположенные Маслоу на нижних этажах своей пирамиды.
В кадре неоднократно появляется крыса, неужели Гиллиам — поклонник журнала`Юный натуралист»? Крыса имеет многоплановое толкование, всё зависит от конкретной культуры, здесь события происходят в христианском храме, и в христианской традиции крыса — символ огромной разрушительной силы, способная загубить абсолютно любое начинание. Нужно ли объяснять, что обозначает крыса в храме, или крыса живущая под боком человека занятого поиском ответа на самый главный вопрос? А впрочем я могу ошибаться, и Гиллиам просто обожает этих милых домашних животных(как все англосаксы), не случайно же крыса Микки герой диснеевских фантазий.
Коэн ищет решение теоремы Зеро, и подсознательно находит его, на этот факт указывает всезнающий Менеджмент, на недоумённый вопрос Коэна о бессмысленности происходящего следует ответ: Все имеет смысл, высокоорганизованный хаос — золотая жила, и я сделаю её своей. Возможно в этой фразе содержится ответ на вопрос о происхождении кризисов современности, и непонятая нами хаотичность на Ближнем Востоке, Ираке, Афганистане, Украине искусственно и искусно организованна?
Отдельно стоит упомянуть секс эпохи Web 2.0. Всё происходит предельно глумливо — смотри, но не трогай, наслаждение без обладания, в тот момент когда Коэн готов забыть свои фобии, Бэйнсли испуганно говорит — нельзя! Менеджмент запрещает! Навязшие в зубах параллели с Замятиным и Оруэллом очевидны. Отличный комплимент — какой у вас большой.. жёсткий диск! Ням — ням, как говаривал Джоби, долой трение слизистых, и не поощряемые Онищенко (по причине антисанитарности)поцелуи, пробирочные дети будут экологически чистыми.
Гиллиама принято называть визионером, пророком. Что из показанного в этом конкретном фильме не существует в реальности? Не существует всеобъемлющей власти ТНК, организующих войны и хаос по своему усмотрению? Отсутствует бешеный ритм жизни, сводящий людей с ума? Человеческое общение вытесняется суррогатами в виде различных соцсетей, и самое главное, произошла подмена настоящих смыслов эрзацами в виде глянцевых картинок с изображением красиво потеющих цыпочек на фоне закатного солнца. Гиилиам — не визионер, он усталый циник, говорящий правду каждым своим фильмом.

MediaInfo:

Общее
Уникальный идентификатор : 202001302882102648628156384248955766292 (0x97F8092A5BBF57F5B508A4BE73C98614)
Полное имя : D:\Films\The.Zero.Theorem.2013.BDRip.1080p.mkv
Формат : Matroska
Версия формата : Version 2
Размер файла : 9,28 Гбайт
Продолжительность : 1 ч. 46 м.
Общий поток : 12,5 Мбит/сек
Дата кодирования : UTC 2014-07-29 07:28:05
Программа кодирования : mkvmerge v5.2.0 ('I can't explain') built on Dec 18 2011 18:12:03
Библиотека кодирования : libebml v1.2.3 + libmatroska v1.3.0
Видео
Идентификатор : 1
Формат : AVC
Формат/Информация : Advanced Video Codec
Профиль формата : High@L4.1
Параметр CABAC формата : Да
Параметр ReFrames формата : 4 кадра
Идентификатор кодека : V_MPEG4/ISO/AVC
Продолжительность : 1 ч. 46 м.
Битрейт : 10,2 Мбит/сек
Ширина : 1816 пикселей
Высота : 1036 пикселей
Соотношение сторон : 16:9
Режим частоты кадров : Постоянный
Частота кадров : 23,976 кадра/сек
Цветовое пространство : YUV
Субдискретизация насыщенности : 4:2:0
Битовая глубина : 8 бит
Тип развёртки : Прогрессивная
Бит/(Пиксели*Кадры) : 0.226
Размер потока : 7,40 Гбайт (80%)
Библиотека кодирования : x264 core 138 r2356 a1d3d17
Настройки программы : cabac=1 / ref=4 / deblock=1:-3:-3 / analyse=0x3:0x113 / me=umh / subme=10 / psy=1 / psy_rd=1.00:0.05 / mixed_ref=1 / me_range=32 / chroma_me=1 / trellis=2 / 8x8dct=1 / cqm=0 / deadzone=21,11 / fast_pskip=0 / chroma_qp_offset=-2 / threads=18 / lookahead_threads=1 / sliced_threads=0 / nr=0 / decimate=1 / interlaced=0 / bluray_compat=0 / constrained_intra=0 / bframes=5 / b_pyramid=2 / b_adapt=2 / b_bias=0 / direct=3 / weightb=1 / open_gop=0 / weightp=2 / keyint=250 / keyint_min=23 / scenecut=40 / intra_refresh=0 / rc=2pass / mbtree=0 / bitrate=10203 / ratetol=1.0 / qcomp=0.70 / qpmin=0 / qpmax=69 / qpstep=4 / cplxblur=20.0 / qblur=0.5 / ip_ratio=1.40 / pb_ratio=1.30 / aq=2:1.00
Язык : English
Default : Да
Forced : Нет
Аудио #1
Идентификатор : 2
Формат : DTS
Формат/Информация : Digital Theater Systems
Режим : 16
Параметр Endianness формата : Big
Идентификатор кодека : A_DTS
Продолжительность : 1 ч. 46 м.
Вид битрейта : Постоянный
Битрейт : 768 Кбит/сек
Каналы : 6 каналов
Расположение каналов : Front: L C R, Side: L R, LFE
Частота : 48,0 КГц
Битовая глубина : 24 бит
Метод сжатия : С потерями
Размер потока : 585 Мбайт (6%)
Заголовок : PashaUP
Язык : Russian
Default : Да
Forced : Нет
Аудио #2
Идентификатор : 3
Формат : DTS
Формат/Информация : Digital Theater Systems
Режим : 16
Параметр Endianness формата : Big
Идентификатор кодека : A_DTS
Продолжительность : 1 ч. 46 м.
Вид битрейта : Постоянный
Битрейт : 1509 Кбит/сек
Каналы : 6 каналов
Расположение каналов : Front: L C R, Side: L R, LFE
Частота : 48,0 КГц
Битовая глубина : 24 бит
Метод сжатия : С потерями
Размер потока : 1,12 Гбайт (12%)
Язык : English
Default : Нет
Forced : Нет
Текст #1
Идентификатор : 4
Формат : UTF-8
Идентификатор кодека : S_TEXT/UTF8
Идентификатор кодека/Информация : UTF-8 Plain Text
Заголовок : WARgos91
Язык : Russian
Default : Нет
Forced : Нет
Текст #2
Идентификатор : 5
Формат : UTF-8
Идентификатор кодека : S_TEXT/UTF8
Идентификатор кодека/Информация : UTF-8 Plain Text
Язык : English
Default : Нет
Forced : Нет
Текст #3
Идентификатор : 6
Формат : UTF-8
Идентификатор кодека : S_TEXT/UTF8
Идентификатор кодека/Информация : UTF-8 Plain Text
Заголовок : SDH
Язык : English
Default : Нет
Forced : Нет
Меню
00:00:00.000 : en:00:00:00.000
00:05:37.963 : en:00:05:37.963
00:12:46.474 : en:00:12:46.474
00:20:42.032 : en:00:20:42.032
00:26:03.479 : en:00:26:03.479
00:34:39.119 : en:00:34:39.119
00:38:38.274 : en:00:38:38.274
00:43:15.760 : en:00:43:15.760
00:47:40.900 : en:00:47:40.900
00:55:51.557 : en:00:55:51.557
01:00:55.110 : en:01:00:55.110
01:05:50.613 : en:01:05:50.613
01:15:47.460 : en:01:15:47.460
01:25:13.442 : en:01:25:13.442
01:32:21.536 : en:01:32:21.536
01:38:55.930 : en:01:38:55.930
------------------x264 info---------------
x264 [info]: frame I:1144 Avg QP:16.70 size:235169
x264 [info]: frame P:38256 Avg QP:18.92 size: 91555
x264 [info]: frame B:113745 Avg QP:21.78 size: 38431
-Скриншоты: -Время раздачи: С 8:00 до 22:00 до 5 скачавших

[Цитировать]



Показать сообщения:    

Текущее время: 09-Дек 20:33

Часовой пояс: UTC + 3


Вы не можете начинать темы
Вы не можете отвечать на сообщения
Вы не можете редактировать свои сообщения
Вы не можете удалять свои сообщения
Вы не можете голосовать в опросах
Вы не можете прикреплять файлы к сообщениям
Вы не можете скачивать файлы

!ВНИМАНИЕ!
Сайт не предоставляет электронные версии произведений, а занимается лишь коллекционированием и каталогизацией ссылок, присылаемых и публикуемых на форуме нашими читателями. Если вы являетесь правообладателем какого-либо представленного материала и не желаете, чтобы ссылка на него находилась в нашем каталоге, свяжитесь с нами, и мы незамедлительно удалим ее. Файлы для обмена на трекере предоставлены пользователями сайта, и администрация не несет ответственности за их содержание. Просьба не заливать файлы, защищенные авторскими правами, а также файлы нелегального содержания!