[ Сегодня идет свободное скачивание без начисления Download ]


Статистика раздачи
Нет
 
   
 
Top  
 
 
-Этим утром в Нью-Йорке / The Angriest Man in Brooklyn (2014) BDRip- Год выпуска: 2014
Производство: США - AMIB Productions, Cargo Entertainment, Films de Force Majeure, Landscape Entertainment, MICA Entertainment, Prominent Media Group, Vedette Finance
Жанр: Драма, комедия
Перевод: Дублированный |Line|
Субтитры: Вшитые отключаемые (PGS)
Язык субтитров: Английский
Режиссер: Фил Олден Робинсон
Актеры: Робин Уильямс, Мила Кунис, Питер Динклэйдж, Мелисса Лео, Джеймс Эрл Джонс, Саттон Фостер, Хамиш Линклэйтер, Ричард Кайнд, Исайя Уитлок мл., Ли Гарлингтон
Описание фильма:
Женщина-врач по ошибке сообщает одному вредному пациенту, что ему осталось жить полтора часа. Стремясь исправить свою адскую оплошность, она устремляется на поиски человека, который решил, пока не поздно, исправить все ошибки, совершенные им в жизни.

Дата мировой премьеры: 22 мая 2014
Дата российской премьеры: 22 мая 2014, «Наше Кино»
Продолжительность: 01:23:44
Качество видео: BDRip 1080p
Видеокодек: MPEG-4 AVC/H.264
Видео: H264, 17.5 Мбит/с, 1920x1080, 23.976 кадр/с
Аудио #1: Русский: AC3, 2.0, 192 Кбит/с, 48kHz, 16 bit
Аудио #2: Английский: DTS, 5.1, 1536 Кбит/с, 48 kHz, 24 bit

MediaInfo:

Общее
Уникальный идентификатор : 173749211966110141270544448699290097569 (0x82B6E18A20DCD526947592BE9F3417A1)
Полное имя : D:\Video\The.Angriest.Man.in.Brooklyn.2014.BluRay.1080p.x264.HDWinG.mkv
Формат : Matroska
Версия формата : Version 4 / Version 2
Размер файла : 11,2 Гбайт
Продолжительность : 1 ч. 23 м.
Общий поток : 19,2 Мбит/сек
Дата кодирования : UTC 2014-07-30 02:01:25
Программа кодирования : mkvmerge v6.3.0 ('You can't stop me!') built on Jun 28 2013 20:09:41
Библиотека кодирования : libebml v1.3.0 + libmatroska v1.4.0
Видео
Идентификатор : 1
Формат : AVC
Формат/Информация : Advanced Video Codec
Профиль формата : High@L4.1
Параметр CABAC формата : Да
Параметр ReFrames формата : 4 кадра
Идентификатор кодека : V_MPEG4/ISO/AVC
Продолжительность : 1 ч. 23 м.
Битрейт : 17,5 Мбит/сек
Ширина : 1920 пикселей
Высота : 1080 пикселей
Соотношение сторон : 16:9
Режим частоты кадров : Постоянный
Частота кадров : 23,976 кадра/сек
Цветовое пространство : YUV
Субдискретизация насыщенности : 4:2:0
Битовая глубина : 8 бит
Тип развёртки : Прогрессивная
Бит/(Пиксели*Кадры) : 0.352
Размер потока : 10,00 Гбайт (89%)
Библиотека кодирования : x264 core 142 r2431+42 c69a006 tMod [8-bit@4:2:0 X86_64]
Настройки программы : cabac=1 / ref=4 / deblock=1:-3:-3 / analyse=0x3:0x113 / me=umh / subme=11 / psy=1 / fade_compensate=0.00 / psy_rd=1.10:0.05 / mixed_ref=1 / me_range=32 / chroma_me=1 / trellis=2 / 8x8dct=1 / cqm=0 / deadzone=21,11 / fast_pskip=0 / chroma_qp_offset=-3 / threads=18 / lookahead_threads=3 / sliced_threads=0 / nr=0 / decimate=0 / interlaced=0 / bluray_compat=0 / constrained_intra=0 / fgo=0 / bframes=8 / b_pyramid=2 / b_adapt=2 / b_bias=0 / direct=3 / weightb=1 / open_gop=0 / weightp=2 / keyint=240 / keyint_min=24 / scenecut=40 / intra_refresh=0 / rc_lookahead=40 / rc=2pass / mbtree=0 / bitrate=17500 / ratetol=1.0 / qcomp=0.70 / qpmin=0:0:0 / qpmax=69:69:69 / qpstep=4 / cplxblur=20.0 / qblur=0.5 / vbv_maxrate=50000 / vbv_bufsize=40000 / nal_hrd=none / filler=0 / ip_ratio=1.20 / pb_ratio=1.20 / aq=4:0.75 / aq-sensitivity=10.00 / aq-factor=1.00:1.00:1.00 / aq2=0 / aq3=0
Язык : English
Default : Нет
Forced : Нет
Аудио #1
Идентификатор : 2
Формат : AC-3
Формат/Информация : Audio Coding 3
Расширение режима : CM (complete main)
Параметр Endianness формата : Big
Идентификатор кодека : A_AC3
Продолжительность : 1 ч. 23 м.
Вид битрейта : Постоянный
Битрейт : 192 Кбит/сек
Каналы : 2 канала
Расположение каналов : Front: L R
Частота : 48,0 КГц
Битовая глубина : 16 бит
Метод сжатия : С потерями
Размер потока : 115 Мбайт (1%)
Язык : Russian
Default : Нет
Forced : Нет
Аудио #2
Идентификатор : 3
Формат : DTS
Формат/Информация : Digital Theater Systems
Режим : 16
Параметр Endianness формата : Big
Идентификатор кодека : A_DTS
Продолжительность : 1 ч. 23 м.
Вид битрейта : Постоянный
Битрейт : 1509 Кбит/сек
Каналы : 6 каналов
Расположение каналов : Front: L C R, Side: L R, LFE
Частота : 48,0 КГц
Битовая глубина : 24 бит
Метод сжатия : С потерями
Размер потока : 904 Мбайт (8%)
Язык : English
Default : Нет
Forced : Нет
Текст
Идентификатор : 4
Формат : PGS
Режим смешивания : zlib
Идентификатор кодека : S_HDMV/PGS
Идентификатор кодека/Информация : The same subtitle format used on BDs/HD-DVDs
Язык : English
Default : Да
Forced : Нет

Рецензия:

просто браво. и точка.
Это довольно старомодная смесь драмы, мелодрамы, комедии и даже фарса. Но всёж в самую первую очередь этот фильм — драма. А уже потом комедия.
Итак, однажды утром в Нью-Йорке один немолодой уже адвокат (Робин Уильямс), мизантроп и эгоист едет на приём к своему врачу. Его давно уже мучает мигрень… А день не удался с самого утра. То дикий таксист-гастарбайтер, то ещё кто… У врача (Мила Кунис) свои проблемы. И профессиональные, и личные, и вообще. И вот — короткое межличностное замыкание и доведённая упёртым пациентом до белого каления врач по результатам МРТ пророчит ему всего лишь 90 минут. Всей оставшейся жизни. Разьярённый адвокат выбегает из клиники (это надо было видеть!), врач — в ступоре. А затем начинаются гонки по кругу — пациент решает, как именно стоит провести эти последние оставшиеся полтора часа своей жизни, доктор пытается найти его…
И вот тут начинается подлинная драма. Немолодой уже человек начинает вспоминать своих близких, стремится к ним. Но нельзя за час исправить то зло, которое было причинено годы тому назад…
Уильямс играет просто великолепно. Это не слабее чем было в «Пробуждении», «Обществе мёртвых поэтов» и «Куда приводят мечты». Фильм и его главный герой захватывают внимание зрителя чуть ли не мгновенно. И уже словно забываешь о том что это всего лишь кино…
Кунис также была великолепна. Но кто позабавил особенно, так это неподражаемый Питер Динклейдж (Тирион Ланнистер из «Игры престолов»), сыгравший брата главного героя. Питер блестяще играл драматическую роль, однако не забывал и о своём комедийном таланте.
В общем и целом получился великолепнейший кинопродукт. Отличная драма и довольно забавная трагикомедия. Начавшись подобно «С меня хватит!» (с М. Дугласом), ближе к финалу картина Фила Робинсона всё более и более напоминает нам «Большого Лебовски», непревзойдённый шедевр братьев Коэнов.
Итак, это был отличный фильм. А теперь вот о грустном, сиречь о чайной ложке дёгтя. Не стоило добавлять в финальные титры фильма, который поднимает глобальные по сути вопросы жизни, смерти, ценности семьи и т. п., так вот, не стоило ставить в титры «смешные дубли». Так был опошлен светлый финал картины. Да и сцена на корабле, тоже в финале… Лучше бы всё прекратили после первой минуты.
Однако, невзирая на всё вышеперечисленное, данный фильм к просмотру рекомендую однозначно.
Потому что это настоящее кино, подлинное высокое искусство.
8 из 10
Скриншоты:
Время раздачи: с 10:00 до 20:00 (GMT+2) - до 10 скачавших

[Цитировать]

Топик был перенесен из форума Новинки кинопроката 2016 (HD Video) в форум Архив
D-r Woland_kz



Показать сообщения:    

Текущее время: 24-Мар 02:07

Часовой пояс: UTC + 6


Вы не можете начинать темы
Вы не можете отвечать на сообщения
Вы не можете редактировать свои сообщения
Вы не можете удалять свои сообщения
Вы не можете голосовать в опросах
Вы не можете прикреплять файлы к сообщениям
Вы не можете скачивать файлы

!ВНИМАНИЕ!
Сайт не предоставляет электронные версии произведений, а занимается лишь коллекционированием и каталогизацией ссылок, присылаемых и публикуемых на форуме нашими читателями. Если вы являетесь правообладателем какого-либо представленного материала и не желаете, чтобы ссылка на него находилась в нашем каталоге, свяжитесь с нами, и мы незамедлительно удалим ее. Файлы для обмена на трекере предоставлены пользователями сайта, и администрация не несет ответственности за их содержание. Просьба не заливать файлы, защищенные авторскими правами, а также файлы нелегального содержания!