[ Сегодня идет свободное скачивание без начисления Download ]


Статистика раздачи
Нет
 
   
 
Top  
 
 
-Двойник / The Double (2013) BDRemux- Год выпуска: 2013
Производство: Великобритания / Alcove Entertainment, Film4
Жанр: Триллер, драма
Описание фильма:
Фильм снят по мотивам повести Фёдора Достоевского «Двойник» (1846).
Саймон — скромный работяга. На работе его не замечают, а девушка мечты игнорирует. Кажется, что так будет продолжаться вечно, но однажды в конторе появляется Джеймс, внешне — двойник Саймона, но по характеру его полная противоположность — уверенный, харизматичный плейбой. К ужасу Саймона, Джеймс потихоньку начинает забирать его жизнь.
Режиссер: Ричард Айоади / Richard Ayoade
Продюсер: Амина Дасмал, Робин Фокс, Майкл Кейн
Актеры: Джесси Айзенберг, Миа Васиковска, Уоллес Шоун, Ясмин Пейдж, Ноа Тейлор, Джеймс Фокс, Кэти Мориарти, Филлис Соммервиль, Гэбриэлль Дауни, Джон Коркс
Язык: Русский, английский
Перевод: Многоголосый закадровый, профессиональный [лицензия]
Вид субтитров: Вшитые отключаемые
Язык субтитров: Русский

Дата мировой премьеры: 7 сентября 2013
Дата российской премьеры: 1 мая 2014, «Премиум Фильм»
Дата выхода DVD релиза: 31 июля 2014, «CP Дистрибуция»
Дата выхода Blu-ray релиза: 31 июля 2014, «CP Дистрибуция»
Рейтинг MPAA: R
Возраст: 12+
Продолжительность: 01:32:44
Качество видео: BDRemux [RUS]
Видео: MPEG-4 AVC/H.264, 1920x1080, ~14678 kbps, 0.298 bit/pixel, 24 fps
Аудио 1: DTS-HD MA 5.1, 1834 kbps, 48 KHz, 16-bit [Русский - многоголосый закадровый]
Аудио 2: AC3 5.1, 640 kbps, 48 KHz, 16-bit [Русский - многоголосый закадровый]
Аудио 3: DTS-HD MA 5.1, 1809 kbps, 48 KHz, 16-bit [Английский - оригинал]

Отчёт MediaInfo

Полное имя : D:\Двойник-The.Double.(2013).BDRemux.[1080p].mkv
Формат : Matroska
Версия формата : Version 2
Размер файла : 12,3 Гбайт
Продолжительность : 1 ч. 32 м.
Режим общего битрейта : Переменный
Общий поток : 19,0 Мбит/сек
Название фильма : The Double (2013) / Lelya_K for NNM-Club
Дата кодирования : UTC 2014-08-02 21:40:20
Программа кодирования : mkvmerge v5.7.0 ('The Whirlwind') built on Aug 7 2012 14:11:40
Библиотека кодирования : libebml v1.2.3 + libmatroska v1.3.0
Attachment : Yes
Видео
Идентификатор : 1
Формат : AVC
Формат/Информация : Advanced Video Codec
Профиль формата : Main@L4.1
Параметр CABAC формата : Да
Параметр ReFrames формата : 3 кадра
Идентификатор кодека : V_MPEG4/ISO/AVC
Продолжительность : 1 ч. 32 м.
Вид битрейта : Переменный
Битрейт : 14,8 Мбит/сек
Максимальный битрейт : 25,0 Мбит/сек
Ширина : 1920 пикселей
Высота : 1080 пикселей
Соотношение сторон : 16:9
Режим частоты кадров : Постоянный
Частота кадров : 24,000 кадра/сек
Стандарт вещания : NTSC
Цветовое пространство : YUV
Субдискретизация насыщенности : 4:2:0
Битовая глубина : 8 бит
Тип развёртки : Прогрессивная
Бит/(Пиксели*Кадры) : 0.298
Размер потока : 9,61 Гбайт (78%)
Заголовок : Двойник-The.Double.(2013).BDRemux.[1080p]
Язык : English
Default : Да
Forced : Нет
Аудио #1
Идентификатор : 2
Формат : DTS
Формат/Информация : Digital Theater Systems
Профиль формата : MA / Core
Идентификатор кодека : A_DTS
Продолжительность : 1 ч. 32 м.
Вид битрейта : Переменный
Битрейт : 1561 Кбит/сек / 1510 Кбит/сек
Каналы : 6 каналов
Расположение каналов : Front: L C R, Side: L R, LFE
Частота : 48,0 КГц
Битовая глубина : 16 бит
Метод сжатия : Без потерь / Lossy
Заголовок : DTS-HD MA 5.1 / 1834 kbps / MVO
Язык : Russian
Default : Да
Forced : Нет
Аудио #2
Идентификатор : 3
Формат : AC-3
Формат/Информация : Audio Coding 3
Расширение режима : CM (complete main)
Параметр Endianness формата : Big
Идентификатор кодека : A_AC3
Продолжительность : 1 ч. 32 м.
Вид битрейта : Постоянный
Битрейт : 640 Кбит/сек
Каналы : 6 каналов
Расположение каналов : Front: L C R, Side: L R, LFE
Частота : 48,0 КГц
Битовая глубина : 16 бит
Метод сжатия : С потерями
Размер потока : 425 Мбайт (3%)
Заголовок : AC3 5.1 / 640 kbps / MVO
Язык : Russian
Default : Нет
Forced : Нет
Аудио #3
Идентификатор : 4
Формат : DTS
Формат/Информация : Digital Theater Systems
Профиль формата : MA / Core
Идентификатор кодека : A_DTS
Продолжительность : 1 ч. 32 м.
Вид битрейта : Переменный
Битрейт : 1561 Кбит/сек / 1510 Кбит/сек
Каналы : 6 каналов
Расположение каналов : Front: L C R, Side: L R, LFE
Частота : 48,0 КГц
Битовая глубина : 16 бит
Метод сжатия : Без потерь / Lossy
Заголовок : DTS-HD MA 5.1 / 1809 kbps / Original
Язык : English
Default : Нет
Forced : Нет
Текст
Идентификатор : 5
Формат : UTF-8
Идентификатор кодека : S_TEXT/UTF8
Идентификатор кодека/Информация : UTF-8 Plain Text
Заголовок : Full
Язык : Russian
Default : Нет
Forced : Нет
Меню
00:00:00.000 : en:Chapter 1
00:07:27.833 : en:Chapter 2
00:13:05.041 : en:Chapter 3
00:20:27.333 : en:Chapter 4
00:25:23.291 : en:Chapter 5
00:32:16.875 : en:Chapter 6
00:43:08.708 : en:Chapter 7
00:52:58.625 : en:Chapter 8
01:02:09.458 : en:Chapter 9
01:11:15.375 : en:Chapter 10
01:19:18.166 : en:Chapter 11
01:25:58.583 : en:Chapter 12
Скриншоты:

Время раздачи: 24/7 (до 10 скачавших)

[Цитировать]



Показать сообщения:    

Текущее время: 11-Дек 07:10

Часовой пояс: UTC + 3


Вы не можете начинать темы
Вы не можете отвечать на сообщения
Вы не можете редактировать свои сообщения
Вы не можете удалять свои сообщения
Вы не можете голосовать в опросах
Вы не можете прикреплять файлы к сообщениям
Вы не можете скачивать файлы

!ВНИМАНИЕ!
Сайт не предоставляет электронные версии произведений, а занимается лишь коллекционированием и каталогизацией ссылок, присылаемых и публикуемых на форуме нашими читателями. Если вы являетесь правообладателем какого-либо представленного материала и не желаете, чтобы ссылка на него находилась в нашем каталоге, свяжитесь с нами, и мы незамедлительно удалим ее. Файлы для обмена на трекере предоставлены пользователями сайта, и администрация не несет ответственности за их содержание. Просьба не заливать файлы, защищенные авторскими правами, а также файлы нелегального содержания!