[ Сегодня идет свободное скачивание без начисления Download ]


Статистика раздачи
Нет
 
   
 
Top  
 
 
-Новый Человек-паук: Высокое напряжение / The Amazing Spider-Man 2: Rise of Electro (2014) BDRemux-«No more secrets»- Год выпуска: 2014
Производство: США, Marvel Enterprises, Avi Arad Productions, Columbia
Жанр: Фэнтези, Боевик, Приключения
Перевод: Дублированный (iTunes)
Субтитры: Вшитые отключаемые
Язык субтитров: Русский, Английский
Дата мировой премьеры: 10 апреля 2014
Дата российской премьеры: 24 апреля 2014, «WDSSPR»
Дата выхода DVD релиза: 21 августа 2014, «CP Дистрибуция»
Дата выхода Blu-Ray релиза: 21 августа 2014, «CP Дистрибуция»
Режиссер: Марк Уэбб
Продюсер: Ави Арад, Мэттью Толмак, Алекс Куртцман
Актеры: Эндрю Гарфилд, Эмма Стоун, Джейми Фокс, Дэйн ДеХаан, Колм Фиор, Фелисити Джонс, Пол Джаматти, Салли Филд, Эмбет Дэвидц, Кэмпбелл Скотт
Описание фильма:
Питер Паркер под маской Человека-паука по-прежнему спасает мир от злодеев и преступников, а свободное время проводит со своей возлюбленной Гвен, но школьная пора близится к концу, и впереди героев ждет взрослая жизнь. Питер помнит о том, что дал отцу Гвен слово навсегда уйти из жизни девушки, тем самым больше не подвергая ее опасности. Однако сдержать это обещание не так просто. Судьба готовит Питеру сюрпризы: на его пути появится новый противник — Электро, а также ему будет суждено вновь встретиться с давним приятелем Гарри Озборном и узнать много нового о прошлом своей семьи.

Продолжительность: 02:21:34
Качество видео: BDRemux
Видеокодек: MPEG-4 AVC/H.264
Битрейт видео: ~22893 kbps, 1080p, 23.976 fps, 16:9, High Profile 4.1
Размер кадра: 1920 x 1080
Аудио 1: Русский, AC3 5.1, 384 kbps, 48 kHz
Аудио 2: Украинский, AC3 2.0, 192 kBps, 48 kHz
Аудио 3: Английский, DTS-HD MA 5.1, 2373 kbps, 48 kHz, 16 bit
Аудио 4: Английский, AC3 2.0, 192 kbps, 48 kHz (Комментарий)
Сэмпл: Скачать

MediaInfo:

Общее
Уникальный идентификатор : 224339609323771230909971421042782493227 (0xA8C63CB49BF80165B1DBBCFEE337DA2B)
Полное имя : D:\Films\Amazing_Spider-Man_2,_The_2014_BDRemux_1080p.mkv
Формат : Matroska
Версия формата : Version 2
Размер файла : 25,8 Гбайт
Продолжительность : 2 ч. 21 м.
Режим общего битрейта : Переменный
Общий поток : 26,0 Мбит/сек
Название фильма : Amazing Spider-Man 2, The
Дата кодирования : UTC 2014-08-03 01:54:47
Программа кодирования : mkvmerge v5.2.0 ('I can't explain') built on Dec 18 2011 18:12:03
Библиотека кодирования : libebml v1.2.3 + libmatroska v1.3.0
Видео
Идентификатор : 1
Формат : AVC
Формат/Информация : Advanced Video Codec
Профиль формата : High@L4.1
Параметр CABAC формата : Да
Параметр ReFrames формата : 2 кадра
Параметр GOP формата : M=1, N=10
Идентификатор кодека : V_MPEG4/ISO/AVC
Продолжительность : 2 ч. 21 м.
Вид битрейта : Переменный
Ширина : 1920 пикселей
Высота : 1080 пикселей
Соотношение сторон : 16:9
Режим частоты кадров : Постоянный
Частота кадров : 23,976 кадра/сек
Цветовое пространство : YUV
Субдискретизация насыщенности : 4:2:0
Битовая глубина : 8 бит
Тип развёртки : Прогрессивная
Язык : English
Default : Да
Forced : Нет
Аудио #1
Идентификатор : 2
Формат : AC-3
Формат/Информация : Audio Coding 3
Расширение режима : CM (complete main)
Параметр Endianness формата : Big
Идентификатор кодека : A_AC3
Продолжительность : 2 ч. 21 м.
Вид битрейта : Постоянный
Битрейт : 384 Кбит/сек
Каналы : 6 каналов
Расположение каналов : Front: L C R, Side: L R, LFE
Частота : 48,0 КГц
Битовая глубина : 16 бит
Метод сжатия : С потерями
Размер потока : 389 Мбайт (1%)
Заголовок : DUB (iTunes)
Язык : Russian
Default : Да
Forced : Нет
Аудио #2
Идентификатор : 3
Формат : AC-3
Формат/Информация : Audio Coding 3
Расширение режима : CM (complete main)
Параметр Endianness формата : Big
Идентификатор кодека : A_AC3
Продолжительность : 2 ч. 21 м.
Вид битрейта : Постоянный
Битрейт : 192 Кбит/сек
Каналы : 2 канала
Расположение каналов : Front: L R
Частота : 48,0 КГц
Битовая глубина : 16 бит
Метод сжатия : С потерями
Размер потока : 194 Мбайт (1%)
Заголовок : DUB (iTunes)
Язык : Ukrainian
Default : Нет
Forced : Нет
Аудио #3
Идентификатор : 4
Формат : DTS
Формат/Информация : Digital Theater Systems
Профиль формата : MA / Core
Режим : 16
Параметр Endianness формата : Big
Идентификатор кодека : A_DTS
Продолжительность : 2 ч. 21 м.
Вид битрейта : Переменный
Битрейт : Неизвестно / 1509 Кбит/сек
Каналы : 6 каналов
Расположение каналов : Front: L C R, Side: L R, LFE
Частота : 48,0 КГц
Битовая глубина : 16 бит
Метод сжатия : Без потерь / Lossy
Заголовок : Original
Язык : English
Default : Нет
Forced : Нет
Аудио #4
Идентификатор : 5
Формат : AC-3
Формат/Информация : Audio Coding 3
Профиль формата : Dolby Digital
Расширение режима : CM (complete main)
Параметр Endianness формата : Big
Идентификатор кодека : A_AC3
Продолжительность : 2 ч. 21 м.
Вид битрейта : Постоянный
Битрейт : 192 Кбит/сек
Каналы : 2 канала
Расположение каналов : Front: L R
Частота : 48,0 КГц
Битовая глубина : 16 бит
Метод сжатия : С потерями
Размер потока : 194 Мбайт (1%)
Заголовок : Commentary
Язык : English
Default : Нет
Forced : Нет
Текст #1
Идентификатор : 6
Формат : UTF-8
Идентификатор кодека : S_TEXT/UTF8
Идентификатор кодека/Информация : UTF-8 Plain Text
Заголовок : Forced
Язык : Russian
Default : Да
Forced : Нет
Текст #2
Идентификатор : 7
Формат : UTF-8
Идентификатор кодека : S_TEXT/UTF8
Идентификатор кодека/Информация : UTF-8 Plain Text
Заголовок : Full
Язык : Russian
Default : Нет
Forced : Нет
Текст #3
Идентификатор : 8
Формат : UTF-8
Идентификатор кодека : S_TEXT/UTF8
Идентификатор кодека/Информация : UTF-8 Plain Text
Заголовок : Full
Язык : English
Default : Нет
Forced : Нет
Текст #4
Идентификатор : 9
Формат : UTF-8
Идентификатор кодека : S_TEXT/UTF8
Идентификатор кодека/Информация : UTF-8 Plain Text
Заголовок : SDH
Язык : English
Default : Нет
Forced : Нет
Меню
00:00:00.000 : en:Chapter 01
00:07:05.758 : en:Chapter 02
00:14:28.200 : en:Chapter 03
00:20:13.795 : en:Chapter 04
00:29:27.056 : en:Chapter 05
00:39:02.340 : en:Chapter 06
00:50:56.803 : en:Chapter 07
00:59:52.755 : en:Chapter 08
01:08:52.795 : en:Chapter 09
01:16:20.033 : en:Chapter 10
01:25:27.705 : en:Chapter 11
01:35:23.175 : en:Chapter 12
01:41:30.334 : en:Chapter 13
01:49:18.218 : en:Chapter 14
01:57:00.638 : en:Chapter 15
02:04:44.185 : en:Chapter 16
-Скриншоты: -Время раздачи: С 8:00 до 22:00 до 5 скачавших

[Цитировать]



Показать сообщения:    

Текущее время: 02-Дек 21:04

Часовой пояс: UTC + 3


Вы не можете начинать темы
Вы не можете отвечать на сообщения
Вы не можете редактировать свои сообщения
Вы не можете удалять свои сообщения
Вы не можете голосовать в опросах
Вы не можете прикреплять файлы к сообщениям
Вы не можете скачивать файлы

!ВНИМАНИЕ!
Сайт не предоставляет электронные версии произведений, а занимается лишь коллекционированием и каталогизацией ссылок, присылаемых и публикуемых на форуме нашими читателями. Если вы являетесь правообладателем какого-либо представленного материала и не желаете, чтобы ссылка на него находилась в нашем каталоге, свяжитесь с нами, и мы незамедлительно удалим ее. Файлы для обмена на трекере предоставлены пользователями сайта, и администрация не несет ответственности за их содержание. Просьба не заливать файлы, защищенные авторскими правами, а также файлы нелегального содержания!