[ Сегодня идет свободное скачивание без начисления Download ]


Статистика раздачи
Скачал: [ 1 ]
 
   
 
Top  
 
 
-Первый мститель: Другая война / Captain America: The Winter Soldier (2014) BDRip«In heroes we trust»- Год выпуска: 2014
Производство: США / Marvel Entertainment, Marvel Studios Inc.
Жанр: Фантастика, Боевик, Приключения
Режиссер: Энтони Руссо, Джо Руссо
Продюсер: Кевин Файги, Виктория Алонсо, Митчелл Белл
Актеры: Крис Эванс, Скарлетт Йоханссон, Энтони Маки, Себастьян Стэн, Сэмюэл Л. Джексон, Роберт Редфорд, Фрэнк Грилло, Коби Смолдерс, Эмили ВанКэмп, Максимилиано Эрнандес
Описание фильма:
После беспрецедентных событий, впервые собравших вместе команду Мстителей, Стив Роджерс, известный также как Капитан Америка, оседает в Вашингтоне и пытается приспособиться к жизни в современном мире. Но покой этому герою только снится — пытаясь помочь коллеге из агентства Щ. И. Т, Стив оказывается в центре событий, грозящих катастрофой мирового масштаба. Для того, чтобы разоблачить злодейский заговор, Капитан Америка объединяется с Черной вдовой. К ним также присоединяется новый соратник, известный как Сокол, однако никто из них даже не подозревает, на что способен новый враг.
Перевод: Дублированный
Субтитры: Вшитые отключаемые / Отдельным файлом
Язык субтитров: Русский (forced)-
Дата мировой премьеры: 13 марта 2014
Дата российской премьеры: 3 апреля 2014, «WDSSPR»
Дата выхода DVD релиза: 12 августа 2014, «Уолт Дисней Компани СНГ»
Дата выхода BLU-RAY релиза: 12 августа 2014, «Уолт Дисней Компани СНГ»
Рейтинг MPAA: PG-13
Возраст: 12+-Продолжительность: 02:15:54
Качество видео: BDRip
Видеокодек: MPEG-4 AVC/H.264
Битрейт видео: ~13,7 Мбит/сек
Размер кадра: 1920x1080
Аудио 1: AC3 5.1, 640 kbps [Русский]
Аудио 2: AC3 5.1, 640 kbps [Английский]-

Media info:

Общее
Уникальный идентификатор : 190674682041841399047832847006468011609 (0x8F729BA473BC2775929D92FBDC81F659)
Полное имя : F:\my films\CAPT_AMERICA_WINTER_SOLDIER_3D\CAPT_AMERICA_WINTER_SOLDIER_3D.mkv
Формат : Matroska
Версия формата : Version 2
Размер файла : 14,5 Гбайт
Продолжительность : 2 ч. 15 м.
Общий поток : 15,3 Мбит/сек
Дата кодирования : UTC 2014-08-02 11:36:58
Программа кодирования : mkvmerge v7.0.0 ('Where We Going') 32bit built on Jun 9 2014 15:08:34
Библиотека кодирования : libebml v1.3.0 + libmatroska v1.4.1
DURATION : 02:12:17.470000000
NUMBER_OF_FRAMES : 38
NUMBER_OF_BYTES : 1420
_STATISTICS_WRITING_APP : mkvmerge v7.0.0 ('Where We Going') 32bit built on Jun 9 2014 15:08:34
_STATISTICS_WRITING_DATE_UTC : 2014-08-02 11:36:58
_STATISTICS_TAGS : BPS DURATION NUMBER_OF_FRAMES NUMBER_OF_BYTES
Видео
Идентификатор : 1
Формат : AVC
Формат/Информация : Advanced Video Codec
Профиль формата : [email protected]
Параметр CABAC формата : Да
Параметр ReFrames формата : 4 кадра
Идентификатор кодека : V_MPEG4/ISO/AVC
Продолжительность : 2 ч. 15 м.
Битрейт : 13,7 Мбит/сек
Ширина : 1920 пикселей
Высота : 1080 пикселей
Соотношение сторон : 16:9
Режим частоты кадров : Постоянный
Частота кадров : 23,976 кадра/сек
Цветовое пространство : YUV
Субдискретизация насыщенности : 4:2:0
Битовая глубина : 8 бит
Тип развёртки : Прогрессивная
Бит/(Пиксели*Кадры) : 0.276
Размер потока : 13,0 Гбайт (90%)
Заголовок : rip by I/N
Библиотека кодирования : x264 core 128 r2216M 198a7ea
Настройки программы : cabac=1 / ref=4 / deblock=1:-3:-3 / analyse=0x3:0x133 / me=umh / subme=10 / psy=1 / psy_rd=1.00:0.15 / mixed_ref=1 / me_range=32 / chroma_me=1 / trellis=2 / 8x8dct=1 / cqm=0 / deadzone=21,11 / fast_pskip=1 / chroma_qp_offset=-3 / threads=8 / lookahead_threads=1 / sliced_threads=0 / nr=0 / decimate=1 / interlaced=0 / bluray_compat=0 / constrained_intra=0 / bframes=0 / weightp=2 / keyint=230 / keyint_min=23 / scenecut=40 / intra_refresh=0 / rc_lookahead=60 / rc=crf / mbtree=1 / crf=17.0 / qcomp=0.60 / qpmin=0 / qpmax=69 / qpstep=4 / vbv_maxrate=40000 / vbv_bufsize=30000 / crf_max=30.0 / nal_hrd=none / ip_ratio=1.40 / aq=1:1.00
Default : Да
Forced : Нет
Аудио #1
Идентификатор : 2
Формат : AC-3
Формат/Информация : Audio Coding 3
Расширение режима : CM (complete main)
Параметр Endianness формата : Big
Идентификатор кодека : A_AC3
Продолжительность : 2 ч. 15 м.
Вид битрейта : Постоянный
Битрейт : 640 Кбит/сек
Каналы : 6 каналов
Расположение каналов : Front: L C R, Side: L R, LFE
Частота : 48,0 КГц
Битовая глубина : 16 бит
Метод сжатия : С потерями
Размер потока : 622 Мбайт (4%)
Заголовок : Дубляж
Язык : Russian
Default : Да
Forced : Нет
Аудио #2
Идентификатор : 3
Формат : AC-3
Формат/Информация : Audio Coding 3
Расширение режима : CM (complete main)
Параметр Endianness формата : Big
Идентификатор кодека : A_AC3
Продолжительность : 2 ч. 15 м.
Вид битрейта : Постоянный
Битрейт : 640 Кбит/сек
Каналы : 6 каналов
Расположение каналов : Front: L C R, Side: L R, LFE
Частота : 48,0 КГц
Битовая глубина : 16 бит
Метод сжатия : С потерями
Размер потока : 622 Мбайт (4%)
Заголовок : Original
Язык : English
Default : Нет
Forced : Нет
Текст
Идентификатор : 4
Формат : UTF-8
Идентификатор кодека : S_TEXT/UTF8
Идентификатор кодека/Информация : UTF-8 Plain Text
Заголовок : Forced
Язык : Russian
Default : Да
Forced : Нет
Меню
00:00:00.000 : en:00:00:00.000
00:03:28.667 : en:00:03:28.667
00:13:31.728 : en:00:13:31.728
00:17:57.868 : en:00:17:57.868
00:22:25.302 : en:00:22:25.302
00:33:20.415 : en:00:33:20.415
00:41:27.276 : en:00:41:27.276
00:51:37.303 : en:00:51:37.303
00:58:23.959 : en:00:58:23.959
01:07:40.348 : en:01:07:40.348
01:16:22.203 : en:01:16:22.203
01:24:43.078 : en:01:24:43.078
01:32:17.699 : en:01:32:17.699
01:37:06.612 : en:01:37:06.612
01:49:13.088 : en:01:49:13.088
01:55:03.730 : en:01:55:03.730
02:01:11.055 : en:02:01:11.055
02:06:22.241 : en:02:06:22.241
02:15:53.937 : en:02:15:53.937

Особенности релиза:

Справа и слева у видеоряда обрезано по 245р, что дает возможность просмотра на полный экран (без черных полос) на телевизорах с соотношением сторон 16:9 без изменения пропорций. На мой взгляд плюсы данных рипов- это более глубокое восприятие 3D-эффектов (конечно там где они есть) К минусам отнесу- вынужденное обрезание кадра по бокам. Так-что господа- выбор за вами!
Всем приятного просмотра!
Проверено на встроенном плейере ТВ Samsung-D6500Скриншоты:
Время раздачи: 24/7 - круглосуточно до 10 скачавших

[Цитировать]



Показать сообщения:    

Текущее время: 04-Дек 02:57

Часовой пояс: UTC + 3


Вы не можете начинать темы
Вы не можете отвечать на сообщения
Вы не можете редактировать свои сообщения
Вы не можете удалять свои сообщения
Вы не можете голосовать в опросах
Вы не можете прикреплять файлы к сообщениям
Вы не можете скачивать файлы

!ВНИМАНИЕ!
Сайт не предоставляет электронные версии произведений, а занимается лишь коллекционированием и каталогизацией ссылок, присылаемых и публикуемых на форуме нашими читателями. Если вы являетесь правообладателем какого-либо представленного материала и не желаете, чтобы ссылка на него находилась в нашем каталоге, свяжитесь с нами, и мы незамедлительно удалим ее. Файлы для обмена на трекере предоставлены пользователями сайта, и администрация не несет ответственности за их содержание. Просьба не заливать файлы, защищенные авторскими правами, а также файлы нелегального содержания!