[ Сегодня идет свободное скачивание без начисления Download ]


Статистика раздачи
Нет
 
   
 
Top  
 
 
-Оставшийся в живых / Survivor (2014) BDRip
« Alone. Stranded. Deadly »
- Год выпуска: 2014
Производство: США | Arrowstorm Entertainment
Жанр: Фантастика, Фэнтези, Боевик
Режиссер: Джон Лойд
Продюсер: Джон Лойд, Джил Аглор, Саад Аль-Энези
Актеры: Даниэль Чачран, Кевин Сорбо, Пол Хант, Никки Поснер, Джеймс С. Моррис, Блейк Уэбб, Дебора Ли Дуглас, Эбигейл Мэйсон, Мелани Стоун
Описание фильма:
Как только юная Кейт Митра обнаруживает обитаемую планету для тех, кто остался от человечества, удар метеорита разрушает ее космический корабль и она терпит крушение в таинственном пустынном мире. Как Кейт, капитан Хантер и другие выжившие приземляются, но попадают в засаду банды постапокалиптических воинов и мутировавших дикарей. Кейт просыпается связанной в пещере, захваченная плотоядными пещерными существами и вдали от ее друзей. Она должна научиться доверять таинственным гуманоидам планеты для того, чтобы обогнать, перехитрить и победить орду кровожадных инопланетян и огромного волка-мутанта и спасти своих друзей и своего капитана прежде, чем они все будут съедены заживо.
Перевод: Одноголосый закадровый, любительский
Озвучка / Автор перевода: Andi, перевод М. Васильев
Субтитры: Отсутствуют

Дата мировой премьеры: 22 июля 2014
Продолжительность: 01:33:03
Качество видео: BDRip
Видеокодек: MPEG-4 AVC/H.264
Битрейт видео: ~5400 kb/s
Размер кадра: 1280x720
Аудио №1: 48 kHz, AC-3, 2 ch, (Front: L R), 192 kbps | Русский VO
Аудио №2: 48 kHz, DTS, 6 ch, (Front: L C R, Side: L R), LFE; 1509 kbps | Оригинал (английский)
Сэмпл: Скачать

MediaInfo

General
Unique ID                      : 214037560708451629117303017966555064860 (0xA106227E44ACDDDEB3573FD5F3E76A1C)
Complete name                  : D:\фильмы\Ostavshijsja.v.zgivyh.2014.BDRip.720p.mkv
Format                         : Matroska
Format version                 : Version 2
File size                      : 4.62 GiB
Duration                       : 1h 33mn
Overall bit rate               : 7 102 Kbps
Encoded date                   : UTC 2014-08-03 04:08:19
Writing application            : mkvmerge v3.4.0 ('Rapunzel') сборка от May 15 2010 09:38:20
Writing library                : libebml v0.8.0 + libmatroska v0.9.0
Video
ID                             : 1
Format                         : AVC
Format/Info                    : Advanced Video Codec
Format profile                 : [url=mailto:High@L4.1]High@L4.1[/url]
Format settings, CABAC         : Yes
Format settings, ReFrames      : 3 frames
Codec ID                       : V_MPEG4/ISO/AVC
Bit rate                       : 5 400 Kbps
Width                          : 1 280 pixels
Height                         : 720 pixels
Display aspect ratio           : 16:9
Frame rate mode                : Variable
Color space                    : YUV
Chroma subsampling             : 4:2:0
Bit depth                      : 8 bits
Scan type                      : Progressive
Writing library                : x264 core 130 r2273 b3065e6
Encoding settings              : cabac=1 / ref=4 / deblock=1:-1:-1 / analyse=0x3:0x133 / me=umh / subme=9 / psy=1 / psy_rd=1.00:0.00 / mixed_ref=1 / me_range=24 / chroma_me=1 / trellis=2 / 8x8dct=1 / cqm=0 / deadzone=21,11 / fast_pskip=1 / chroma_qp_offset=-2 / threads=12 / lookahead_threads=1 / sliced_threads=0 / nr=0 / decimate=1 / interlaced=0 / bluray_compat=0 / constrained_intra=0 / bframes=6 / b_pyramid=1 / b_adapt=2 / b_bias=0 / direct=2 / weightb=1 / open_gop=0 / weightp=2 / keyint=240 / keyint_min=24 / scenecut=40 / intra_refresh=0 / rc_lookahead=40 / rc=2pass / mbtree=1 / bitrate=5400 / ratetol=1.0 / qcomp=0.60 / qpmin=0 / qpmax=69 / qpstep=4 / cplxblur=20.0 / qblur=0.5 / vbv_maxrate=62500 / vbv_bufsize=78125 / nal_hrd=none / ip_ratio=1.40 / aq=1:1.00
Language                       : English
Default                        : No
Forced                         : No
Color primaries                : BT.709
Transfer characteristics       : BT.709
Matrix coefficients            : BT.709
Audio #1
ID                             : 2
Format                         : AC-3
Format/Info                    : Audio Coding 3
Mode extension                 : CM (complete main)
Format settings, Endianness    : Big
Codec ID                       : A_AC3
Duration                       : 1h 33mn
Bit rate mode                  : Constant
Bit rate                       : 192 Kbps
Channel(s)                     : 2 channels
Channel positions              : Front: L R
Sampling rate                  : 48.0 KHz
Bit depth                      : 16 bits
Compression mode               : Lossy
Stream size                    : 128 MiB (3%)
Language                       : Russian
Default                        : No
Forced                         : No
Audio #2
ID                             : 3
Format                         : DTS
Format/Info                    : Digital Theater Systems
Mode                           : 16
Format settings, Endianness    : Big
Codec ID                       : A_DTS
Duration                       : 1h 33mn
Bit rate mode                  : Constant
Bit rate                       : 1 509 Kbps
Channel(s)                     : 6 channels
Channel positions              : Front: L C R, Side: L R, LFE
Sampling rate                  : 48.0 KHz
Bit depth                      : 16 bits
Compression mode               : Lossy
Delay relative to video        : 11ms
Stream size                    : 1 004 MiB (21%)
Language                       : English
Default                        : No
Forced                         : No
Скриншоты:

Время раздачи: 10:00 - 24:00

[Цитировать]



Показать сообщения:    

Текущее время: 09-Дек 18:27

Часовой пояс: UTC + 3


Вы не можете начинать темы
Вы не можете отвечать на сообщения
Вы не можете редактировать свои сообщения
Вы не можете удалять свои сообщения
Вы не можете голосовать в опросах
Вы не можете прикреплять файлы к сообщениям
Вы не можете скачивать файлы

!ВНИМАНИЕ!
Сайт не предоставляет электронные версии произведений, а занимается лишь коллекционированием и каталогизацией ссылок, присылаемых и публикуемых на форуме нашими читателями. Если вы являетесь правообладателем какого-либо представленного материала и не желаете, чтобы ссылка на него находилась в нашем каталоге, свяжитесь с нами, и мы незамедлительно удалим ее. Файлы для обмена на трекере предоставлены пользователями сайта, и администрация не несет ответственности за их содержание. Просьба не заливать файлы, защищенные авторскими правами, а также файлы нелегального содержания!