[ Сегодня идет свободное скачивание без начисления Download ]


Статистика раздачи
Нет
 
   
 
Top  
 
 
-Полный облом / Big Nothing (2006) BDRip [H.264] -«Парочка трупов - это только начало!»- Год выпуска: 2006
Жанр: Триллер, Комедия, Криминал
Производство: Великобритания, Канада / British Path?, Isle of Man Film Ltd., Millennium Films, Path?, Wales Creative IP Fund
Описание фильма:
Что может быть страшнее для Чарли Вуда — школьного учителя, чем с треском вылететь с «любимой» работы и попрощаться с бандой малолетних спиногрызов? Только сидеть на шее у своей жены — копа, превратиться в домохозяйку и няню в одном лице. Или просиживать штаны в пыльной конторе до конца жизни…
Отличная перспектива! Но судьба все же слабо улыбнулась патологическому неудачнику. Наверное, она просто хотела над ним посмеяться. Жаль, что он сразу этого не понял…
Режиссер: Жан-Баптист Андреа
Сценарий: Жан-Баптист Андреа, Билли Эшер
Продюсер: Андрас Хамори, Габриэлла Столленверк, Дэвид Болл
Актеры: Дэвид Швиммер, Саймон Пегг, Элис Ив, Наташа МакЭлхоун, Джон Полито, Мими Роджерс, Билли Эшер, Джулиан Гловер, Оливия Петерсон, Сара Эдмондсон
Продолжительность: 01:25:33
Качество видео: BDRip
Перевод: Дублированный (МОСФИЛЬМ-мастер, 2007)

Дата мировой премьеры: 18 ноября 2006
Дата российской премьеры: 15 марта 2007, «Люксор»
Видеокодек: MPEG-4 AVC/H.264
Битрейт видео: ~2048 Кбит/сек
Размер кадра: 1024x432
Аудиокодек: AC3 5.1
Битрейт аудио: 384 Кбит/сек

Реценция с кинопоиска от Marvel:

А до Орегоны точно доедем?
Только что получил большое удовольствие после просмотра данного фильма, и сразу хочу посоветовать его всем, кто любит чёрный юмор, поджаренный и с кровью. Хорошие актёры, хорошие шутки без привычной обыденной попсы, хорошие диалоги и само собой хороший непредсказуемый сценарий. Кровь, нелепые, глупые смерти, враньё, афёра, и маньяк на маньяки, которых ФБР ищет уже несколько лет, а их случайно пересекает жизнь, и сталкивает между собой и одним хорошим парнем, которому всё это не нравится, но…
Не буду рассказывать фильм, потому что сюжет в нём играет большую и важную роль. Ещё я выделил бы шикарный соундтрек, грамотно шумящий там, где герои молча выполняют свою криминальную работу, и фразу женщины с топором в голове: «Я уже 20 лет не слышала Pink Floyd».
Хороший и в принципе, уникальный фильм, который можно посмотреть и в компании, и одному, и в кинотеатре.
10 из 10

MediaInfo:

General
Unique ID : 193517412788188053996366398280102840994 (0x91961916D9928176AE75677718080AA2)
Complete name : F:\Downloads\Полный облом.mkv
Format : Matroska
Format version : Version 4 / Version 2
File size : 1.45 GiB
Duration : 1h 25mn
Overall bit rate : 2 432 Kbps
Encoded date : UTC 2014-07-28 21:41:56
Writing application : mkvmerge v6.4.1 ('Omega Point') built on Sep 16 2013 22:05:10
Writing library : libebml v1.3.0 + libmatroska v1.4.1
Video
ID : 1
Format : AVC
Format/Info : Advanced Video Codec
Format profile : High@L4.1
Format settings, CABAC : Yes
Format settings, ReFrames : 8 frames
Codec ID : V_MPEG4/ISO/AVC
Duration : 1h 25mn
Bit rate : 2 048 Kbps
Width : 1 024 pixels
Height : 432 pixels
Display aspect ratio : 2.40:1
Frame rate mode : Constant
Frame rate : 23.976 fps
Color space : YUV
Chroma subsampling : 4:2:0
Bit depth : 8 bits
Scan type : Progressive
Bits/(Pixel*Frame) : 0.193
Stream size : 1.19 GiB (82%)
Title : Big Nothing
Writing library : x264 core 125 r2208 d9d2288
Encoding settings : cabac=1 / ref=8 / deblock=1:-1:-1 / analyse=0x3:0x133 / me=umh / subme=9 / psy=1 / psy_rd=1.00:0.10 / mixed_ref=1 / me_range=32 / chroma_me=1 / trellis=2 / 8x8dct=1 / cqm=0 / deadzone=21,11 / fast_pskip=0 / chroma_qp_offset=-3 / threads=6 / lookahead_threads=1 / sliced_threads=0 / nr=0 / decimate=1 / interlaced=0 / bluray_compat=0 / constrained_intra=0 / bframes=3 / b_pyramid=2 / b_adapt=2 / b_bias=0 / direct=3 / weightb=1 / open_gop=0 / weightp=2 / keyint=250 / keyint_min=25 / scenecut=40 / intra_refresh=0 / rc_lookahead=60 / rc=2pass / mbtree=1 / bitrate=2048 / ratetol=1.0 / qcomp=0.60 / qpmin=0 / qpmax=69 / qpstep=4 / cplxblur=20.0 / qblur=0.5 / ip_ratio=1.40 / aq=1:1.00
Language : English
Default : Yes
Forced : No
Audio
ID : 2
Format : AC-3
Format/Info : Audio Coding 3
Mode extension : CM (complete main)
Format settings, Endianness : Big
Codec ID : A_AC3
Duration : 1h 25mn
Bit rate mode : Constant
Bit rate : 384 Kbps
Channel(s) : 6 channels
Channel positions : Front: L C R, Side: L R, LFE
Sampling rate : 48.0 KHz
Bit depth : 16 bits
Compression mode : Lossy
Stream size : 235 MiB (16%)
Title : Дублированный, МОСФИЛЬМ-мастер
Language : Russian
Default : Yes
Forced : No
Скриншоты: Время раздачи: с 13:00 до 01:00 по Москве (выходные круглосуточно), до 10 скачавших

[Цитировать]



Показать сообщения:    

Текущее время: 09-Дек 10:48

Часовой пояс: UTC + 3


Вы не можете начинать темы
Вы не можете отвечать на сообщения
Вы не можете редактировать свои сообщения
Вы не можете удалять свои сообщения
Вы не можете голосовать в опросах
Вы не можете прикреплять файлы к сообщениям
Вы не можете скачивать файлы

!ВНИМАНИЕ!
Сайт не предоставляет электронные версии произведений, а занимается лишь коллекционированием и каталогизацией ссылок, присылаемых и публикуемых на форуме нашими читателями. Если вы являетесь правообладателем какого-либо представленного материала и не желаете, чтобы ссылка на него находилась в нашем каталоге, свяжитесь с нами, и мы незамедлительно удалим ее. Файлы для обмена на трекере предоставлены пользователями сайта, и администрация не несет ответственности за их содержание. Просьба не заливать файлы, защищенные авторскими правами, а также файлы нелегального содержания!