[ Сегодня идет свободное скачивание без начисления Download ]


Статистика раздачи
Нет
 
   
 
Top  
 
 
-Новый Человек-паук: Высокое напряжение / The Amazing Spider-Man 2: Rise of Electro (2014) DVD5 [BD -> DVD]- Год выпуска: 2014
Производство: США, Marvel Enterprises, Avi Arad Productions, Columbia
Жанр: Фэнтези, Боевик, Приключения
Режиссер: Марк Уэбб
Продюсер: Ави Арад, Мэттью Толмак, Алекс Куртцман
Актеры: Эндрю Гарфилд, Эмма Стоун, Джейми Фокс, Дэйн ДеХаан, Колм Фиор, Фелисити Джонс, Пол Джаматти, Салли Филд, Эмбет Дэвидц, Кэмпбелл Скотт
Описание фильма:
Питер Паркер под маской Человека-паука по-прежнему спасает мир от злодеев и преступников, а свободное время проводит со своей возлюбленной Гвен, но школьная пора близится к концу, и впереди героев ждет взрослая жизнь. Питер помнит о том, что дал отцу Гвен слово навсегда уйти из жизни девушки, тем самым больше не подвергая ее опасности. Однако сдержать это обещание не так просто. Судьба готовит Питеру сюрпризы: на его пути появится новый противник — Электро, а также ему будет суждено вновь встретиться с давним приятелем Гарри Озборном и узнать много нового о прошлом своей семьи.
Перевод: Дублированный (iTunes)
Субтитры: Вшитые отключаемые
Язык субтитров: Русский (форсированные), Русский (полные), Английский (полные)

Дата мировой премьеры: 10 апреля 2014
Дата российской премьеры: 24 апреля 2014, «WDSSPR»
Дата выхода DVD релиза: 21 августа 2014, «CP Дистрибуция»
Дата выхода Blu-Ray релиза: 21 августа 2014, «CP Дистрибуция»
Продолжительность: 02:15:46
Качество видео: DVD5 [BD -> DVD]
Видео: MPEG-2, ~3700 kbps, [email protected], 25 fps (PAL)
Аудио 1: AC3 5.1, 384 kbps, 48 kHz [русский дубляж]
Аудио 2: AC3 5.1, 384 kbps, 48 kHz [английский оригинал]
Сэмпл: Скачать

Процесс изготовления диска

Выражаем благодарность FILVOVAN за BDRemux, из которого я изготовил DVD.
Видео обрабатывалось в Rhozet Carbon Coder за 2 прохода.
Звук обрабатывался в Sony Vegas 9.
Меню самодельное, немое, меню выбора эпизода анимированное.
Субтитры нужно выбирать с пульта т.к. из меню выбор субтитров не работает, если есть форсированные субтитры.
DVD собирался в DVD-lab PRO 2.

MediaInfo

Общее
Полное имя                               : E:\!кинчики\старый человек-паук 2\The.Amazing.Spider-Man.2.2014.DVD5.PAL.[NNM-Club]\VIDEO_TS\VTS_01_1.VOB
Формат                                   : MPEG-PS
Размер файла                             : 1000 Мбайт
Продолжительность                        : 27 м.
Режим общего битрейта                    : Переменный
Общий поток                              : 5074 Кбит/сек
Видео
Идентификатор                            : 224 (0xE0)
Формат                                   : MPEG Video
Версия формата                           : Version 2
Профиль формата                          : [email protected]
Параметр BVOP формата                    : Да
Параметр матрицы формата                 : Выборочная
Параметр GOP формата                     : M=3, N=15
Продолжительность                        : 27 м.
Вид битрейта                             : Переменный
Битрейт                                  : 4205 Кбит/сек
Максимальный битрейт                     : 9000 Кбит/сек
Ширина                                   : 720 пикселей
Высота                                   : 576 пикселей
Соотношение сторон                       : 16:9
Частота кадров                           : 25,000 кадров/сек
Стандарт вещания                         : PAL
Цветовое пространство                    : YUV
Субдискретизация насыщенности            : 4:2:0
Битовая глубина                          : 8 бит
Тип развёртки                            : Прогрессивная
Метод сжатия                             : С потерями
Бит/(Пиксели*Кадры)                      : 0.406
Временной код первого кадра              : 00:00:00:00
Оригинал временного кода                 : Group of pictures header
Размер потока                            : 829 Мбайт (83%)
Аудио #1
Идентификатор                            : 189 (0xBD)-128 (0x80)
Формат                                   : AC-3
Формат/Информация                        : Audio Coding 3
Расширение режима                        : CM (complete main)
Параметр Endianness формата              : Big
Режим смешивания                         : DVD-Video
Продолжительность                        : 27 м.
Вид битрейта                             : Постоянный
Битрейт                                  : 384 Кбит/сек
Каналы                                   : 6 каналов
Расположение каналов                     : Front: L C R, Side: L R, LFE
Частота                                  : 48,0 КГц
Битовая глубина                          : 16 бит
Метод сжатия                             : С потерями
Размер потока                            : 75,7 Мбайт (8%)
Аудио #2
Идентификатор                            : 189 (0xBD)-129 (0x81)
Формат                                   : AC-3
Формат/Информация                        : Audio Coding 3
Расширение режима                        : CM (complete main)
Параметр Endianness формата              : Big
Режим смешивания                         : DVD-Video
Продолжительность                        : 27 м.
Вид битрейта                             : Постоянный
Битрейт                                  : 384 Кбит/сек
Каналы                                   : 6 каналов
Расположение каналов                     : Front: L C R, Side: L R, LFE
Частота                                  : 48,0 КГц
Битовая глубина                          : 16 бит
Метод сжатия                             : С потерями
Размер потока                            : 75,7 Мбайт (8%)
Текст #1
Идентификатор                            : 189 (0xBD)-33 (0x21)
Формат                                   : RLE
Формат/Информация                        : Run-length encoding
Режим смешивания                         : DVD-Video
Текст #2
Идентификатор                            : 189 (0xBD)-34 (0x22)
Формат                                   : RLE
Формат/Информация                        : Run-length encoding
Режим смешивания                         : DVD-Video

DVDInfo

Title:
Size: 4.38 Gb ( 4 589 268 KBytes ) - DVD-5
Enabled regions: 1, 2, 3, 4, 5, 6, 7, 8
VTS_01 :
  Play Length: 02:15:46
  Video: PAL 16:9 (720x576) VBR, Auto Pan&Scan
  Audio:
      Russian (Dolby AC3, 6 ch)
      English (Dolby AC3, 6 ch)
  Subtitles:
      Russian
      Russian
      English
Menu Video:
      PAL 4:3 (720x576) VBR
Menu English Language Unit :
      Root Menu
      Chapter (PTT) Menu

Скриншоты меню

Скриншоты фильма:

Время раздачи: круглосуточно до 100 скачавших

[Цитировать]



Показать сообщения:    

Текущее время: 04-Дек 04:56

Часовой пояс: UTC + 3


Вы не можете начинать темы
Вы не можете отвечать на сообщения
Вы не можете редактировать свои сообщения
Вы не можете удалять свои сообщения
Вы не можете голосовать в опросах
Вы не можете прикреплять файлы к сообщениям
Вы не можете скачивать файлы

!ВНИМАНИЕ!
Сайт не предоставляет электронные версии произведений, а занимается лишь коллекционированием и каталогизацией ссылок, присылаемых и публикуемых на форуме нашими читателями. Если вы являетесь правообладателем какого-либо представленного материала и не желаете, чтобы ссылка на него находилась в нашем каталоге, свяжитесь с нами, и мы незамедлительно удалим ее. Файлы для обмена на трекере предоставлены пользователями сайта, и администрация не несет ответственности за их содержание. Просьба не заливать файлы, защищенные авторскими правами, а также файлы нелегального содержания!