[ Сегодня идет свободное скачивание без начисления Download ]


Статистика раздачи
Нет
 
   
 
Top  
 
 
-Новый Человек-паук: Высокое напряжение / The Amazing Spider-Man 2: Rise of Electro (2014) BDRip [1080p] 3D [Вертикальная анаморфная стереопара]- Год выпуска: 2014
Производство: США, Marvel Enterprises, Avi Arad Productions, Columbia Pictures
Жанр: Фэнтези, Боевик, Приключения
Режиссер: Марк Уэбб
Продюсер: Ави Арад, Мэттью Толмак, Алекс Куртцман
Актеры: Эндрю Гарфилд, Эмма Стоун, Джейми Фокс, Дэйн ДеХаан, Колм Фиор, Фелисити Джонс, Пол Джаматти, Салли Филд, Эмбет Дэвидц, Кэмпбелл Скотт
Описание фильма:
Питер Паркер под маской Человека-паука по-прежнему спасает мир от злодеев и преступников, а свободное время проводит со своей возлюбленной Гвен, но школьная пора близится к концу, и впереди героев ждет взрослая жизнь. Питер помнит о том, что дал отцу Гвен слово навсегда уйти из жизни девушки, тем самым больше не подвергая ее опасности. Однако сдержать это обещание не так просто. Судьба готовит Питеру сюрпризы: на его пути появится новый противник — Электро, а также ему будет суждено вновь встретиться с давним приятелем Гарри Озборном и узнать много нового о прошлом своей семьи.
Перевод: Дублированный (iTunes)
Субтитры: Вшитые отключаемые
Язык субтитров: Русский (forced, full), английский (full, SDH)

Дата мировой премьеры: 10 апреля 2014
Дата российской премьеры: 24 апреля 2014, «WDSSPR»
Дата выхода DVD/Blu-Ray релиза: 21 августа 2014, «CP Дистрибуция»
Продолжительность: 02:21:34
Качество видео: BDRip [1080p] (Ash61)
Видеокодек: MPEG-4 AVC/H.264
Битрейт видео: ~11795 kbps
Размер кадра: 1920х1080
Аудио #1: Русский: AC-3, 48.0 KHz, 6 ch, 384 Kbps, CBR - (iTunes)
Аудио #2: Украинский: AC-3, 48.0 KHz, 2 ch, 192 Kbps, CBR - (iTunes)
Аудио #3: Английский: DTS, 48.0 KHz, 6 ch, 1510 Kbps, CBR - (Оригинал)
Аудио #4: Английский: AC-3, 48.0 KHz, 2 ch, 192 Kbps, CBR - (Filmmakers' Commentary)
Аудио #5: Английский: AC-3, 48.0 KHz, 2 ch, 192 Kbps, CBR - (Descriptive)
Сэмпл: Скачать

MediaInfo:

Общее
Уникальный идентификатор : 249228153933484699213772159080417022451 (0xBB7F98B1E58025B386E08D0F036D51F3)
Полное имя : D:\Фильмы 3D\Novyi.chelovek.pauk.Vysokoe.napryajenie.2014.3D.BDRip.1080p.HalfOU.mkv
Формат : Matroska
Версия формата : Version 4 / Version 2
Размер файла : 14,1 Гбайт
Продолжительность : 2 ч. 21 м.
Общий поток : 14,3 Мбит/сек
Дата кодирования : UTC 2014-08-05 07:04:21
Программа кодирования : mkvmerge v7.1.0 ('Good Love') 64bit built on Jul 27 2014 13:06:55
Библиотека кодирования : libebml v1.3.0 + libmatroska v1.4.1
DURATION : 02:21:34.753000000
NUMBER_OF_FRAMES : 796383
NUMBER_OF_BYTES : 1602322596
_STATISTICS_WRITING_APP : mkvmerge v7.1.0 ('Good Love') 64bit built on Jul 27 2014 13:06:55
_STATISTICS_WRITING_DATE_UTC : 2014-08-05 07:04:21
_STATISTICS_TAGS : BPS DURATION NUMBER_OF_FRAMES NUMBER_OF_BYTES
Attachment : Yes
Видео
Идентификатор : 1
Формат : AVC
Формат/Информация : Advanced Video Codec
Профиль формата : [email protected]
Параметр CABAC формата : Да
Параметр ReFrames формата : 4 кадра
Идентификатор кодека : V_MPEG4/ISO/AVC
Продолжительность : 2 ч. 21 м.
Битрейт : 11,5 Мбит/сек
Ширина : 1920 пикселей
Высота : 1080 пикселей
Соотношение сторон : 16:9
Режим частоты кадров : Постоянный
Частота кадров : 23,976 кадра/сек
Цветовое пространство : YUV
Субдискретизация насыщенности : 4:2:0
Битовая глубина : 8 бит
Тип развёртки : Прогрессивная
Бит/(Пиксели*Кадры) : 0.232
Размер потока : 11,4 Гбайт (81%)
Библиотека кодирования : x264 core 138 r2358 9e941d1
Настройки программы : cabac=1 / ref=4 / deblock=1:-3:-3 / analyse=0x3:0x113 / me=umh / subme=10 / psy=1 / psy_rd=1.00:0.15 / mixed_ref=1 / me_range=32 / chroma_me=1 / trellis=2 / 8x8dct=1 / cqm=0 / deadzone=21,11 / fast_pskip=1 / chroma_qp_offset=-3 / threads=12 / lookahead_threads=2 / sliced_threads=0 / nr=0 / decimate=1 / interlaced=0 / bluray_compat=0 / constrained_intra=0 / bframes=9 / b_pyramid=2 / b_adapt=2 / b_bias=0 / direct=3 / weightb=1 / open_gop=0 / weightp=2 / keyint=250 / keyint_min=23 / scenecut=40 / intra_refresh=0 / rc_lookahead=60 / rc=crf / mbtree=1 / crf=17.5 / qcomp=0.70 / qpmin=0 / qpmax=69 / qpstep=4 / vbv_maxrate=40000 / vbv_bufsize=30000 / crf_max=0.0 / nal_hrd=none / frame-packing=4 / ip_ratio=1.40 / aq=1:0.70
Язык : English
Default : Да
Forced : Нет
DURATION : 02:21:34.737000000
NUMBER_OF_FRAMES : 203670
NUMBER_OF_BYTES : 12524499663
_STATISTICS_WRITING_APP : mkvmerge v7.1.0 ('Good Love') 64bit built on Jul 27 2014 13:06:55
_STATISTICS_WRITING_DATE_UTC : 2014-08-05 07:04:21
_STATISTICS_TAGS : BPS DURATION NUMBER_OF_FRAMES NUMBER_OF_BYTES
Аудио #1
Идентификатор : 2
Формат : AC-3
Формат/Информация : Audio Coding 3
Расширение режима : CM (complete main)
Параметр Endianness формата : Big
Идентификатор кодека : A_AC3
Продолжительность : 2 ч. 21 м.
Вид битрейта : Постоянный
Битрейт : 384 Кбит/сек
Каналы : 6 каналов
Расположение каналов : Front: L C R, Side: L R, LFE
Частота : 48,0 КГц
Битовая глубина : 16 бит
Метод сжатия : С потерями
Размер потока : 389 Мбайт (3%)
Заголовок : AC3 / 5.1 / 384 Kbps / iTunes
Язык : Russian
Default : Да
Forced : Нет
Аудио #2
Идентификатор : 3
Формат : AC-3
Формат/Информация : Audio Coding 3
Расширение режима : CM (complete main)
Параметр Endianness формата : Big
Идентификатор кодека : A_AC3
Продолжительность : 2 ч. 21 м.
Вид битрейта : Постоянный
Битрейт : 192 Кбит/сек
Каналы : 2 канала
Расположение каналов : Front: L R
Частота : 48,0 КГц
Битовая глубина : 16 бит
Метод сжатия : С потерями
Размер потока : 194 Мбайт (1%)
Заголовок : AC3 / 2.0 / 192 Kbps / iTunes
Язык : Ukrainian
Default : Нет
Forced : Нет
Аудио #3
Идентификатор : 4
Формат : DTS
Формат/Информация : Digital Theater Systems
Режим : 16
Параметр Endianness формата : Big
Идентификатор кодека : A_DTS
Продолжительность : 2 ч. 21 м.
Вид битрейта : Постоянный
Битрейт : 1509 Кбит/сек
Каналы : 6 каналов
Расположение каналов : Front: L C R, Side: L R, LFE
Частота : 48,0 КГц
Битовая глубина : 24 бит
Метод сжатия : С потерями
Размер потока : 1,49 Гбайт (11%)
Заголовок : DTS / 5.1 / 1510 Kbps / Original
Язык : English
Default : Нет
Forced : Нет
Аудио #4
Идентификатор : 5
Формат : AC-3
Формат/Информация : Audio Coding 3
Профиль формата : Dolby Digital
Расширение режима : CM (complete main)
Параметр Endianness формата : Big
Идентификатор кодека : A_AC3
Продолжительность : 2 ч. 21 м.
Вид битрейта : Постоянный
Битрейт : 192 Кбит/сек
Каналы : 2 канала
Расположение каналов : Front: L R
Частота : 48,0 КГц
Битовая глубина : 16 бит
Метод сжатия : С потерями
Размер потока : 194 Мбайт (1%)
Заголовок : AC3 / 2.0 / 192 Kbps / Filmmakers' Commentary
Язык : English
Default : Нет
Forced : Нет
Аудио #5
Идентификатор : 6
Формат : AC-3
Формат/Информация : Audio Coding 3
Профиль формата : Dolby Digital
Расширение режима : CM (complete main)
Параметр Endianness формата : Big
Идентификатор кодека : A_AC3
Продолжительность : 2 ч. 21 м.
Вид битрейта : Постоянный
Битрейт : 192 Кбит/сек
Каналы : 2 канала
Расположение каналов : Front: L R
Частота : 48,0 КГц
Битовая глубина : 16 бит
Метод сжатия : С потерями
Размер потока : 194 Мбайт (1%)
Заголовок : AC3 / 2.0 / 192 Kbps / Descriptive
Язык : English
Default : Нет
Forced : Нет
Текст #1
Идентификатор : 7
Формат : UTF-8
Идентификатор кодека : S_TEXT/UTF8
Идентификатор кодека/Информация : UTF-8 Plain Text
Заголовок : Форсированные
Язык : Russian
Default : Да
Forced : Нет
Текст #2
Идентификатор : 8
Формат : UTF-8
Идентификатор кодека : S_TEXT/UTF8
Идентификатор кодека/Информация : UTF-8 Plain Text
Заголовок : Полные
Язык : Russian
Default : Нет
Forced : Нет
Текст #3
Идентификатор : 9
Формат : UTF-8
Идентификатор кодека : S_TEXT/UTF8
Идентификатор кодека/Информация : UTF-8 Plain Text
Заголовок : Full
Язык : English
Default : Нет
Forced : Нет
Текст #4
Идентификатор : 10
Формат : UTF-8
Идентификатор кодека : S_TEXT/UTF8
Идентификатор кодека/Информация : UTF-8 Plain Text
Заголовок : SDH
Язык : English
Default : Нет
Forced : Нет
Меню
00:00:00.000 : :1
00:07:05.341 : :2
00:14:28.200 : :3
00:20:13.836 : :4
00:29:27.097 : :5
00:39:02.590 : :6
00:50:56.802 : :7
00:59:52.755 : :8
01:08:53.127 : :9
01:16:19.949 : :10
01:25:27.704 : :11
01:35:23.259 : :12
01:41:30.333 : :13
01:49:18.342 : :14
01:57:00.637 : :15
02:04:44.350 : :16

Avdump:

File: D:\Фильмы 3D\Novyi.chelovek.pauk.Vysokoe.napryajenie.2014.3D.BDRip.1080p.HalfOU.mkv
Duration: 02:21:35 (8494.75)
Track #1: video
lang: Unknown (1)
codc: V_MPEG4/ISO/AVC -> H264/AVC (22)
reso: 1920x1080 -> 16:9
fram: 23.976 fps
rate: 11795 kbps (11795.1)
dura: 02:21:35 (8494.7)
size: 11.66 GB (12524499663)
Track #2: audio (AC3 / 5.1 / 384 Kbps / iTunes)
lang: rus -> Russian (15)
codc: A_AC3 -> AC3 (2)
chan: 6 -> 5.1 Surround
samp: 48000 Hz
rate: 384 kbps (384.05)
dura: 02:21:34 (8494.46)
size: 388.89 MB (407783040)
Track #3: audio (AC3 / 2.0 / 192 Kbps / iTunes)
lang: ukr -> Unknown (1)
codc: A_AC3 -> AC3 (2)
chan: 2 -> Stereo
samp: 48000 Hz
rate: 192 kbps (192.03)
dura: 02:21:34 (8494.46)
size: 194.46 MB (203904362)
Track #4: audio (DTS / 5.1 / 1510 Kbps / Original)
lang: Unknown (1)
codc: A_DTS -> DTS (13)
chan: 6 -> 5.1 Surround
samp: 48000 Hz
rate: 1509 kbps (1509.11)
dura: 02:21:35 (8494.70)
size: 1.49 GB (1602425918)
Track #5: audio (AC3 / 2.0 / 192 Kbps / Filmmakers' Commentary)
lang: Unknown (1)
codc: A_AC3 -> AC3 (2)
chan: 2 -> Stereo
samp: 48000 Hz
rate: 192 kbps (192.04)
dura: 02:21:35 (8494.72)
size: 194.46 MB (203910511)
Track #6: audio (AC3 / 2.0 / 192 Kbps / Descriptive)
lang: Unknown (1)
codc: A_AC3 -> AC3 (2)
chan: 2 -> Stereo
samp: 48000 Hz
rate: 192 kbps (192.04)
dura: 02:21:35 (8494.72)
size: 194.46 MB (203910512)
Track #7: subtitles (??????????????????????????)
lang: rus -> Russian (15)
type: S_TEXT/UTF8 -> SRT (3)
size: 338.00 B (338)
Track #8: subtitles (????????????)
lang: rus -> Russian (15)
type: S_TEXT/UTF8 -> SRT (3)
size: 77.02 KB (78871)
Track #9: subtitles (Full)
lang: Unknown (1)
type: S_TEXT/UTF8 -> SRT (3)
size: 53.01 KB (54280)
Track #10: subtitles (SDH)
lang: Unknown (1)
type: S_TEXT/UTF8 -> SRT (3)
size: 63.28 KB (64797)
Sizes: (check sanity)
disk: 14.11 GB (15150861482)
atts: 424.51 KB (434702)
trac: 6.11 GB (6556697700) [based on track size]
bitr: 14.11 GB (15146448226) [based on bitrate]
tdif: 8.00 GB (8593729080) 56.72%
bdif: 3.79 MB (3978553) 0.02%
Скриншоты:
Время раздачи: 24/7
(до 5 скачавших)

[Цитировать]



Показать сообщения:    

Текущее время: 04-Дек 19:21

Часовой пояс: UTC + 3


Вы не можете начинать темы
Вы не можете отвечать на сообщения
Вы не можете редактировать свои сообщения
Вы не можете удалять свои сообщения
Вы не можете голосовать в опросах
Вы не можете прикреплять файлы к сообщениям
Вы не можете скачивать файлы

!ВНИМАНИЕ!
Сайт не предоставляет электронные версии произведений, а занимается лишь коллекционированием и каталогизацией ссылок, присылаемых и публикуемых на форуме нашими читателями. Если вы являетесь правообладателем какого-либо представленного материала и не желаете, чтобы ссылка на него находилась в нашем каталоге, свяжитесь с нами, и мы незамедлительно удалим ее. Файлы для обмена на трекере предоставлены пользователями сайта, и администрация не несет ответственности за их содержание. Просьба не заливать файлы, защищенные авторскими правами, а также файлы нелегального содержания!