[ Сегодня идет свободное скачивание без начисления Download ]


Статистика раздачи
Скачал: [ 1 ]
 
   
 
Top  
 
 
-Болотная street, или Средство против секса- Год выпуска: 1991
Страны: СССР
Жанры: комедия
Продолжительность: 01:16:16
Режиссер: Марк Айзенберг
Сценарий: Владимир Зайкин
Оператор: Олег Рунушкин
Композитор : Александр Зацепин
Художник: Татьяна Филатова
Монтаж: Тамара Кривошеина
В ролях: Михаил Пуговкин (управдом Фёдор), Татьяна Васильева (Лидия), Леонид Ярмольник (Геннадий), Лариса Удовиченко (Наталья Владимировна), Станислав Садальский (Лёва), Михаил Кокшенов (пожарный Григорий), Ефим Шифрин (жилец с 12-го этажа), Елена Кондулайнен (репортёр)

Описание: Лева возвращается из зоны. После трехлетнего полового воздержания им движут вполне понятные желания. Сексуальный потенциал Левы настолько высок, что от него как спичка вспыхивает многоэтажный дом. Во время пожара вскрываются многие пикантные подробности из жизни его обитателей.
Качество: TVRip
Формат: AVI
Видео кодек: XviD
Видео: 640x480 (4:3), 23.976 fps, XviD, 1 570 Kbps
Аудио: MP3, 97.4 Kbps, 44.1 KHz, 2 ch

МедиаИнфо

Общее
Полное имя                               : Bolotnaya_Street_TVRip.avi
Формат                                   : AVI
Формат/Информация                        : Audio Video Interleave
Размер файла                             : 1,17 Гбайт
Продолжительность                        : 1 ч. 16 м.
Общий поток                              : 2202 Кбит/сек
Программа кодирования                    : VirtualDubMod 1.5.10.2 (build 2542/release)
Библиотека кодирования                   : VirtualDubMod build 2542/release
Видео
Идентификатор                            : 0
Формат                                   : MPEG-4 Visual
Параметр BVOP формата                    : Да
Параметр QPel формата                    : Нет
Параметр GMC формата                     : Без точки перехода
Параметр матрицы формата                 : Default (H.263)
Идентификатор кодека                     : DX50
Идентификатор кодека/Подсказка           : DivX 5
Продолжительность                        : 1 ч. 16 м.
Битрейт                                  : 2001 Кбит/сек
Ширина                                   : 640 пикселей
Высота                                   : 488 пикселей
Соотношение сторон                       : 5:4
Соотношение сторон в оригинале           : 4:3
Частота кадров                           : 25,000 кадров/сек
Цветовое пространство                    : YUV
Субдискретизация насыщенности            : 4:2:0
Битовая глубина                          : 8 бит
Тип развёртки                            : Прогрессивная
Метод сжатия                             : С потерями
Бит/(Пиксели*Кадры)                      : 0.256
Размер потока                            : 1,06 Гбайт (91%)
Библиотека кодирования                   : DivX 6.5.1 (UTC 2007-03)
Аудио
Идентификатор                            : 1
Формат                                   : MPEG Audio
Версия формата                           : Version 1
Профиль формата                          : Layer 3
Идентификатор кодека                     : 55
Идентификатор кодека/Подсказка           : MP3
Продолжительность                        : 1 ч. 16 м.
Вид битрейта                             : Постоянный
Битрейт                                  : 192 Кбит/сек
Каналы                                   : 2 канала
Частота                                  : 48,0 КГц
Метод сжатия                             : С потерями
Размер потока                            : 105 Мбайт (9%)
Выравнивание                             : Соединение по промежуткам
Продолжительность промежутка             : 40  мс. (1,00 видеокадр)
Время предзагрузки промежутка            : 504  мс.
Библиотека кодирования                   : LAME3.97
Настройки программы                      : -m s -V 4 -q 0 -b 192
Скриншоты:

[Цитировать]



Показать сообщения:    

Текущее время: 25-Май 18:44

Часовой пояс: UTC + 6


Вы не можете начинать темы
Вы не можете отвечать на сообщения
Вы не можете редактировать свои сообщения
Вы не можете удалять свои сообщения
Вы не можете голосовать в опросах
Вы не можете прикреплять файлы к сообщениям
Вы не можете скачивать файлы

!ВНИМАНИЕ!
Сайт не предоставляет электронные версии произведений, а занимается лишь коллекционированием и каталогизацией ссылок, присылаемых и публикуемых на форуме нашими читателями. Если вы являетесь правообладателем какого-либо представленного материала и не желаете, чтобы ссылка на него находилась в нашем каталоге, свяжитесь с нами, и мы незамедлительно удалим ее. Файлы для обмена на трекере предоставлены пользователями сайта, и администрация не несет ответственности за их содержание. Просьба не заливать файлы, защищенные авторскими правами, а также файлы нелегального содержания!