[ Сегодня идет свободное скачивание без начисления Download ]


Статистика раздачи
Нет
 
   
 
Top  
 
 
-Восемь баскских фамилий / Ocho apellidos vascos (2014) BDRemux- Год выпуска: 2014
Производство: Испания / Kowalski Films, Telecinco Cinema
Жанр: Комедия
Режиссер: Эмилио Мартинес Ласаро / Emilio Mart?nez L?zaro
Продюсер: Альваро Аугустин, Жислен Баруа, Гонсало Саласар-Симпсон
Актеры: Клара Лаго, Дэни Ровира, Кармен Мачи, Карра Элехальде, Альберто Лопес, Альфонсо Санчес, Айтор Масо, Абель Мора, Мириам Кабеса
Описание фильма:
Картина рассказывает о странствиях Рафа, андалузца чистой виноградной лозы, который никогда не покидал своей родной и любимой Севильи, так как она давала ему все, что нужно для жизни — хорошее вино, гель для волос и женщин. В один прекрасный день жизнь Рафа меняется, после того, как он встречает первую женщину, устоявшую перед его обаянием — басконку Амайю. Чтобы завоевать ее, Рафа совершает путешествие в Страну Басков, чтобы доказать прекрасной девушке, что он в душе настоящий баск и достоин ее любви.
Язык: Русский, испанский
Перевод: Одноголосый закадровый (авторский)
Озвучка / Автор перевода: А. Алексеев
Субтитры: Вшитые отключаемые
Язык субтитров: Английский, испанский

Дата мировой премьеры: 14 марта 2014
Продолжительность: 01:39:13
Качество видео: BDRemux
Видео: MPEG-4 AVC/H.264, 1920x1080 (16:9), ~20488 kbps, 0.488 bit/pixel, 23.976 fps
Аудио »1: DTS-HD MA 5.1, 3818 kbps, 48 KHz, 24-bit (Русский) / AVO
Аудио »2: AC3 5.1, 640 kbps, 48 KHz, 16-bit (Русский) / AVO
Аудио »3: DTS-HD MA 5.1, 3759 kbps, 48 KHz, 24-bit (Испанский) / Оригинал

MediaInfo:

Формат : Matroska
Версия формата : Version 2
Размер файла : 19,8 Гбайт
Продолжительность : 1 ч. 39 м.
Режим общего битрейта : Переменный
Общий поток : 28,6 Мбит/сек
Название фильма : Ocho.apellidos.vascos.2014.BDRemux.1080p
Дата кодирования : UTC 2014-08-06 12:29:06
Программа кодирования : mkvmerge v6.4.1 ('Omega Point') built on Sep 16 2013 22:05:10
Библиотека кодирования : libebml v1.3.0 + libmatroska v1.4.1
Видео
Идентификатор : 1
Формат : AVC
Формат/Информация : Advanced Video Codec
Профиль формата : High@L4.1
Параметр CABAC формата : Да
Параметр ReFrames формата : 4 кадра
Параметр GOP формата : M=1, N=12
Идентификатор кодека : V_MPEG4/ISO/AVC
Продолжительность : 1 ч. 39 м.
Вид битрейта : Переменный
Битрейт : 24,3 Мбит/сек
Максимальный битрейт : 39,5 Мбит/сек
Ширина : 1920 пикселей
Высота : 1080 пикселей
Соотношение сторон : 16:9
Режим частоты кадров : Постоянный
Частота кадров : 23,976 кадра/сек
Цветовое пространство : YUV
Субдискретизация насыщенности : 4:2:0
Битовая глубина : 8 бит
Тип развёртки : Прогрессивная
Бит/(Пиксели*Кадры) : 0.488
Размер потока : 16,8 Гбайт (85%)
Заголовок : Ocho.apellidos.vascos.2014.BDRemux.1080p
Язык : Spanish
Default : Да
Forced : Нет
Аудио #1
Идентификатор : 2
Формат : DTS
Формат/Информация : Digital Theater Systems
Профиль формата : MA / Core
Идентификатор кодека : A_DTS
Продолжительность : 1 ч. 39 м.
Вид битрейта : Переменный
Битрейт : 1561 Кбит/сек / 1510 Кбит/сек
Каналы : 6 каналов
Расположение каналов : Front: L C R, Side: L R, LFE
Частота : 48,0 КГц
Битовая глубина : 24 бит
Метод сжатия : Без потерь / Lossy
Заголовок : DTS-HD MA 5.1 / Аворский одноголосый
Язык : Russian
Default : Да
Forced : Нет
Аудио #2
Идентификатор : 3
Формат : AC-3
Формат/Информация : Audio Coding 3
Расширение режима : CM (complete main)
Параметр Endianness формата : Big
Идентификатор кодека : A_AC3
Продолжительность : 1 ч. 39 м.
Вид битрейта : Постоянный
Битрейт : 640 Кбит/сек
Каналы : 6 каналов
Расположение каналов : Front: L C R, Side: L R, LFE
Частота : 48,0 КГц
Битовая глубина : 16 бит
Метод сжатия : С потерями
Размер потока : 454 Мбайт (2%)
Заголовок : AC3 5.1 / Аворский одноголосый
Язык : Russian
Default : Нет
Forced : Нет
Аудио #3
Идентификатор : 4
Формат : DTS
Формат/Информация : Digital Theater Systems
Профиль формата : MA / Core
Идентификатор кодека : A_DTS
Продолжительность : 1 ч. 39 м.
Вид битрейта : Переменный
Битрейт : 1561 Кбит/сек / 1510 Кбит/сек
Каналы : 6 каналов
Расположение каналов : Front: L C R, Side: L R, LFE
Частота : 48,0 КГц
Битовая глубина : 24 бит
Метод сжатия : Без потерь / Lossy
Заголовок : DTS-HD MA 5.1 / Оригинал
Язык : Spanish
Default : Нет
Forced : Нет
Текст #1
Идентификатор : 5
Формат : UTF-8
Идентификатор кодека : S_TEXT/UTF8
Идентификатор кодека/Информация : UTF-8 Plain Text
Язык : English
Default : Нет
Forced : Нет
Текст #2
Идентификатор : 6
Формат : UTF-8
Идентификатор кодека : S_TEXT/UTF8
Идентификатор кодека/Информация : UTF-8 Plain Text
Язык : Spanish
Default : Нет
Forced : Нет
Меню
00:00:00.000 : en:00:00:00.000
00:07:09.179 : en:00:07:09.179
00:11:58.343 : en:00:11:58.343
00:17:00.937 : en:00:17:00.937
00:23:22.484 : en:00:23:22.484
00:30:35.667 : en:00:30:35.667
00:36:41.783 : en:00:36:41.783
00:41:02.418 : en:00:41:02.418
00:47:56.499 : en:00:47:56.499
00:53:07.768 : en:00:53:07.768
01:00:32.087 : en:01:00:32.087
01:07:36.511 : en:01:07:36.511
01:14:38.683 : en:01:14:38.683
01:19:02.696 : en:01:19:02.696
01:27:20.694 : en:01:27:20.694
01:35:43.905 : en:01:35:43.905
Скриншоты:


Время раздачи: c 20:00 до 23:00

[Цитировать]



Показать сообщения:    

Текущее время: 07-Дек 17:31

Часовой пояс: UTC + 3


Вы не можете начинать темы
Вы не можете отвечать на сообщения
Вы не можете редактировать свои сообщения
Вы не можете удалять свои сообщения
Вы не можете голосовать в опросах
Вы не можете прикреплять файлы к сообщениям
Вы не можете скачивать файлы

!ВНИМАНИЕ!
Сайт не предоставляет электронные версии произведений, а занимается лишь коллекционированием и каталогизацией ссылок, присылаемых и публикуемых на форуме нашими читателями. Если вы являетесь правообладателем какого-либо представленного материала и не желаете, чтобы ссылка на него находилась в нашем каталоге, свяжитесь с нами, и мы незамедлительно удалим ее. Файлы для обмена на трекере предоставлены пользователями сайта, и администрация не несет ответственности за их содержание. Просьба не заливать файлы, защищенные авторскими правами, а также файлы нелегального содержания!