[ Сегодня идет свободное скачивание без начисления Download ]


Статистика раздачи
Нет
 
   
 
Top  
 
 
-Восемь баскских фамилий / Ocho apellidos vascos (2014) HDRip- Год выпуска: 2014
Производство: Испания
Жанр: Комедия
Перевод: Одноголосый закадровый, авторский
Озвучка / Автор перевода: А. Алексеев
Субтитры: Отсутствуют
Дата мировой премьеры: 14 марта 2014
Режиссер: Эмилио Мартинес Ласаро
Продюсер: Альваро Аугустин, Жислен Баруа, Гонсало Саласар-Симпсон
Актеры: Клара Лаго, Дэни Ровира, Кармен Мачи, Карра Элехальде. Альберто Лопес, Альфонсо Санчес, Айтор Масо, Абель Мора, Мириам Кабеса
Описание фильма:
Картина рассказывает о странствиях Рафа, андалузца чистой виноградной лозы, который никогда не покидал своей родной и любимой Севильи, так как она давала ему все, что нужно для жизни — хорошее вино, гель для волос и женщин. В один прекрасный день жизнь Рафа меняется, после того, как он встречает первую женщину, устоявшую перед его обаянием — басконку Амайю. Чтобы завоевать ее, Рафа совершает путешествие в Страну Басков, чтобы доказать прекрасной девушке, что он в душе настоящий баск и достоин ее любви...

Продолжительность: 01:39:13
Качество видео: HDRip
Видеокодек: Xvid
Битрейт видео: ~1515 kb/s
Размер кадра: 720х384
Аудиокодек: AC3 5.1
Битрейт аудио: 448 kb/s
Сэмпл: Скачать

MediaInfo:

Общее
Полное имя : C:Торренты\Восемь баскских фамилий.2014.HDRip.avi
Формат : AVI
Формат/Информация : Audio Video Interleave
Размер файла : 1,37 Гбайт
Продолжительность : 1 ч. 39 м.
Общий поток : 1973 Кбит/сек
Программа кодирования : VirtualDubMod 1.5.10.3 (build 2550/release)
Библиотека кодирования : VirtualDubMod build 2550/release
Видео
Идентификатор : 0
Формат : MPEG-4 Visual
Профиль формата : Advanced [email protected]
Параметр BVOP формата : 2
Параметр QPel формата : Нет
Параметр GMC формата : Без точки перехода
Параметр матрицы формата : Default (MPEG)
Идентификатор кодека : XVID
Идентификатор кодека/Подсказка : XviD
Продолжительность : 1 ч. 39 м.
Битрейт : 1515 Кбит/сек
Ширина : 720 пикселей
Высота : 384 пикселя
Соотношение сторон : 1,85:1
Частота кадров : 23,976 кадра/сек
Цветовое пространство : YUV
Субдискретизация насыщенности : 4:2:0
Битовая глубина : 8 бит
Тип развёртки : Прогрессивная
Метод сжатия : С потерями
Бит/(Пиксели*Кадры) : 0.229
Размер потока : 1,05 Гбайт (77%)
Библиотека кодирования : XviD 1.2.1 (UTC 2008-12-04)
Аудио
Идентификатор : 1
Формат : AC-3
Формат/Информация : Audio Coding 3
Расширение режима : CM (complete main)
Параметр Endianness формата : Big
Идентификатор кодека : 2000
Продолжительность : 1 ч. 39 м.
Вид битрейта : Постоянный
Битрейт : 448 Кбит/сек
Каналы : 6 каналов
Расположение каналов : Front: L C R, Side: L R, LFE
Частота : 48,0 КГц
Битовая глубина : 16 бит
Метод сжатия : С потерями
Размер потока : 318 Мбайт (23%)
Выравнивание : Разделение по промежуткам
Продолжительность промежутка : 42 мс. (1,00 видеокадр)
Время предзагрузки промежутка : 500 мс.
Скриншоты: Время раздачи: с 10.00 до 22.00Незабываем благодарить релизёров. Приятного просмотра.

[Цитировать]



Показать сообщения:    

Текущее время: 06-Дек 05:56

Часовой пояс: UTC + 3


Вы не можете начинать темы
Вы не можете отвечать на сообщения
Вы не можете редактировать свои сообщения
Вы не можете удалять свои сообщения
Вы не можете голосовать в опросах
Вы не можете прикреплять файлы к сообщениям
Вы не можете скачивать файлы

!ВНИМАНИЕ!
Сайт не предоставляет электронные версии произведений, а занимается лишь коллекционированием и каталогизацией ссылок, присылаемых и публикуемых на форуме нашими читателями. Если вы являетесь правообладателем какого-либо представленного материала и не желаете, чтобы ссылка на него находилась в нашем каталоге, свяжитесь с нами, и мы незамедлительно удалим ее. Файлы для обмена на трекере предоставлены пользователями сайта, и администрация не несет ответственности за их содержание. Просьба не заливать файлы, защищенные авторскими правами, а также файлы нелегального содержания!