[ Сегодня идет свободное скачивание без начисления Download ]


Статистика раздачи
Нет
 
   
 
Top  
 
 
-Морпехи 2: Поле Огня / Jarhead 2: Field of Fire (2014) HDRip- Год выпуска: 2014
Производство: США / BUFO, Universal Pictures
Жанр: Боевик, военный
Режиссер: Дон Майкл Пол / Don Michael Paul
Актеры: Джейсон Вонг, Асен Асенов, Дэниел Кетцер, Амр Эль-Баюми, Джесси Гарсиа, Коул Хаузер, Ронни Джатти, Джош Келли, Александр Крустев, Стивен Лэнг, Кесси Лейтон, Боян Левчев
Описание фильма:
Пострадавший в бою и разочарованный войной, Капрал Крис Мерриметт назначен в подразделение, миссия которого - пополнению запасов на отдаленная заставе на краю управляемой Талибаном территории. Во время движения через враждебную провинцию Гильменд, его отряд получает задание международного значения, они должны вывезти из страны афганскую женщину, известную своими выступлениями против талибов. Без танков и поддержки с воздуха, Мерримету и его команде понадобится все мужество и огневая мощь, чтобы пройти свой путь по разоренной войной стране.
Перевод: Любительский одноголосый, закадровый (Andi)
Субтитры: нет

Дата мировой премьеры: 08.08.2014
Продолжительность: 01:42:36
Качество видео: HDRip
Видео: 688x288 (2.39:1), 23.976 fps, XviD build 73 ~884 kbps avg, 0.186 bit/pixel
Аудио: 48 kHz, MPEG Layer 3, 2 ch, 128.00 kbps

MediaInfo:

Общее
Полное имя : E:\Downloads\Морпехи 2. Поле Огня.2014.HDRip.nnm-club.avi
Формат : AVI
Формат/Информация : Audio Video Interleave
Размер файла : 749 Мбайт
Продолжительность : 1 ч. 42 м.
Общий поток : 1021 Кбит/сек
Программа кодирования : VirtualDubMod 1.5.10.3 | [url=http://www.virtualdub-fr.org]www.virtualdub-fr.org[/url] || (build 2550/release)
Библиотека кодирования : VirtualDubMod build 2550/release
Видео
Идентификатор : 0
Формат : MPEG-4 Visual
Профиль формата : Advanced [email protected]
Параметр BVOP формата : 1
Параметр QPel формата : Нет
Параметр GMC формата : Без точки перехода
Параметр матрицы формата : Выборочная
Идентификатор кодека : XVID
Идентификатор кодека/Подсказка : XviD
Продолжительность : 1 ч. 42 м.
Битрейт : 884 Кбит/сек
Ширина : 688 пикселей
Высота : 288 пикселей
Соотношение сторон : 2,40:1
Частота кадров : 23,976 кадра/сек
Цветовое пространство : YUV
Субдискретизация насыщенности : 4:2:0
Битовая глубина : 8 бит
Тип развёртки : Прогрессивная
Метод сжатия : С потерями
Бит/(Пиксели*Кадры) : 0.186
Размер потока : 648 Мбайт (87%)
Библиотека кодирования : XviD 73
Аудио
Идентификатор : 1
Формат : MPEG Audio
Версия формата : Version 1
Профиль формата : Layer 3
Режим : Joint stereo
Идентификатор кодека : 55
Идентификатор кодека/Подсказка : MP3
Продолжительность : 1 ч. 42 м.
Вид битрейта : Постоянный
Битрейт : 128 Кбит/сек
Каналы : 2 канала
Частота : 48,0 КГц
Метод сжатия : С потерями
Размер потока : 93,9 Мбайт (13%)
Выравнивание : Соединение по промежуткам
Продолжительность промежутка : 42 мс. (1,00 видеокадр)
Время предзагрузки промежутка : 504 мс.
Библиотека кодирования : LAME3.99r
Настройки программы : -m j -V 4 -q 2 -lowpass 17 -b 128
Скриншоты:

Время раздачи: с 08.00 до 22.00 | до 5-ти скачавших |

[Цитировать]



Показать сообщения:    

Текущее время: 06-Дек 19:05

Часовой пояс: UTC + 3


Вы не можете начинать темы
Вы не можете отвечать на сообщения
Вы не можете редактировать свои сообщения
Вы не можете удалять свои сообщения
Вы не можете голосовать в опросах
Вы не можете прикреплять файлы к сообщениям
Вы не можете скачивать файлы

!ВНИМАНИЕ!
Сайт не предоставляет электронные версии произведений, а занимается лишь коллекционированием и каталогизацией ссылок, присылаемых и публикуемых на форуме нашими читателями. Если вы являетесь правообладателем какого-либо представленного материала и не желаете, чтобы ссылка на него находилась в нашем каталоге, свяжитесь с нами, и мы незамедлительно удалим ее. Файлы для обмена на трекере предоставлены пользователями сайта, и администрация не несет ответственности за их содержание. Просьба не заливать файлы, защищенные авторскими правами, а также файлы нелегального содержания!