[ Сегодня идет свободное скачивание без начисления Download ]


Статистика раздачи
Нет
 
   
 
Top  
 
 
-Морпехи 2: Поле Огня / Jarhead 2: Field of Fire (2014) BDRip- Год выпуска: 2014
Производство: США
Жанр: Боевик, Военный
Режиссер: Дон Майкл Пол
Актеры: Джейсон Вонг, Асен Асенов, Дэниел Кетцер, Амр Эль-Баюми, Джесси Гарсиа, Коул Хаузер, Ронни Джатти, Джош Келли, Александр Крустев, Стивен Лэнг, Кесси Лейтон, Боян Левчев
Описание фильма:
Пострадавший в бою и разочарованный войной, Капрал Крис Мерриметт назначен в подразделение, миссия которого - пополнению запасов на отдаленная заставе на краю управляемой Талибаном территории. Во время движения через враждебную провинцию Гильменд, его отряд получает задание международного значения, они должны вывезти из страны афганскую женщину, известную своими выступлениями против талибов. Без танков и поддержки с воздуха, Мерримету и его команде понадобится все мужество и огневая мощь, чтобы пройти свой путь по разоренной войной стране.
Перевод: Одноголосый закадровый, любительский
Озвучка / Автор перевода: Andi, перевод М. Васильев

Дата мировой премьеры: 08.08.2014
Продолжительность: 01:42:36
Качество видео: BDRip
Видеокодек: Xvid
Битрейт видео: ~1500 kb/s
Размер кадра: 720х304
Аудиокодек: AC3 5.1
Битрейт аудио: 448 kb/s
Сэмпл: Скачать

MediaInfo:

Общее
Полное имя                       : C:\downloads\Morpehi.2.pole.ognya.2014.L1.BDRip.1.46Gb.avi
Формат                           : AVI
Формат/Информация                : Audio Video Interleave
Размер файла                     : 1,46 Гбайт
Продолжительность                : 1 ч. 42 м.
Общий поток                      : 2037 Кбит/сек
Программа кодирования            : VirtualDubMod 1.5.10.3 | [url=http://www.virtualdub-fr.org]www.virtualdub-fr.org[/url] || (build 2550/release)
Библиотека кодирования           : VirtualDubMod build 2550/release
Видео
Идентификатор                    : 0
Формат                           : MPEG-4 Visual
Профиль формата                  : Advanced Simple@L5
Параметр BVOP формата            : 1
Параметр QPel формата            : Нет
Параметр GMC формата             : Без точки перехода
Параметр матрицы формата         : Выборочная
Идентификатор кодека             : XVID
Идентификатор кодека/Подсказка   : XviD
Продолжительность                : 1 ч. 42 м.
Битрейт                          : 1499 Кбит/сек
Ширина                           : 720 пикс.
Высота                           : 304 пикс.
Соотношение сторон               : 2,35:1
Частота кадров                   : 23,976 кадр/сек
Цветовое пространство            : YUV
Подвыборка цветности             : 4:2:0
Битовая глубина                  : 8 бит
Тип развёртки                    : Прогрессивная
Метод сжатия                     : С потерями
Бит/(Пиксели*Кадры)              : 0.286
Размер потока                    : 1,07 Гбайт (74%)
Библиотека кодирования           : XviD 73
Аудио
Идентификатор                    : 1
Формат                           : AC-3
Формат/Информация                : Audio Coding 3
Расширение режима                : CM (complete main)
Идентификатор кодека             : 2000
Продолжительность                : 1 ч. 42 м.
Вид битрейта                     : Постоянный
Битрейт                          : 448 Кбит/сек
Канал(ы)                         : 6 канала(ов)
Расположение каналов             : Front: L C R, Side: L R, LFE
Частота                          : 48,0 КГц
Битовая глубина                  : 16 бит
Метод сжатия                     : С потерями
Размер потока                    : 328 Мбайт (22%)
Выравнивание                     : Разделение по промежуткам
Скриншоты:
Время раздачи: круглосуточно до 5 скачавших

[Цитировать]



Показать сообщения:    

Текущее время: 09-Дек 01:07

Часовой пояс: UTC + 3


Вы не можете начинать темы
Вы не можете отвечать на сообщения
Вы не можете редактировать свои сообщения
Вы не можете удалять свои сообщения
Вы не можете голосовать в опросах
Вы не можете прикреплять файлы к сообщениям
Вы не можете скачивать файлы

!ВНИМАНИЕ!
Сайт не предоставляет электронные версии произведений, а занимается лишь коллекционированием и каталогизацией ссылок, присылаемых и публикуемых на форуме нашими читателями. Если вы являетесь правообладателем какого-либо представленного материала и не желаете, чтобы ссылка на него находилась в нашем каталоге, свяжитесь с нами, и мы незамедлительно удалим ее. Файлы для обмена на трекере предоставлены пользователями сайта, и администрация не несет ответственности за их содержание. Просьба не заливать файлы, защищенные авторскими правами, а также файлы нелегального содержания!