[ Сегодня идет свободное скачивание без начисления Download ]


Статистика раздачи
Нет
 
   
 
Top  
 
 
-Ночь отдыха для мам / Moms' Night Out (2014) WEB-DLRip
«What could go wrong?»
- Год выпуска: 2014
Производство: США, Pure Flix Entertainment
Жанр: Комедия
Режиссер: Эндрю Эрвин, Эрвин Бразерс
Продюсер: Кевин Даунс, Эндрю Эрвин, Эрвин Бразерс, ...
Актеры: Сара Дрю, Шон Эстин, Патриция Хитон, Трэйси Д. Эдкинс, Дэвид Хант, Логан Уайт, Гарри Шам мл., Эбби Кобб, Роберт Амайа, Кевин Даунс
Описание фильма: Сюжет рассказывает о том, что бывает, когда мамы решают потусоваться ночью, оставив детей и мужей без присмотра. Три закадычные подруги, которые с утра до вечера исполняют обязанности мам, жен, домработниц и так далее, решают устроить себе выходной. Красивое платье, высокие каблуки, вечерний макияж — и вот уже Эллисон и ее подруги готовы начать вечер в шикарном ресторане. По плану после великолепного ужина они отправятся в бар выпить по коктейлю. Однако вскоре выясняется, что муж одной из девушек потерял их ребенка. Конечно, трое подруг немедленно отправляются на поиски, думая, что это досадное недоразумение можно разрешить общими усилиями в самые кратчайшие сроки. Но они еще не знают, что это только начало их длинной-длинной ночи…
Перевод: Многоголосый закадровый, профессиональный

Дата мировой премьеры: 9 мая 2014
Продолжительность: 01:39:01
Качество видео: WEB-DLRip
Видеокодек: Xvid
Битрейт видео: ~1719 kbps
Размер кадра: 720x304
Аудиокодек: AC3 5.1
Битрейт аудио: 384 kbps
Сэмпл: Скачать

MI

Общее
Полное имя : No4j.otdyha.dlya.mam.2014.P.WEB-DLRip.NNM-CLUB.avi
Формат : AVI
Формат/Информация : Audio Video Interleave
Размер файла : 1,46 Гбайт
Продолжительность : 1 ч. 39 м.
Общий поток : 2113 Кбит/сек
Программа кодирования : VirtualDubMod 1.5.10.3 | www.virtualdub-fr.org || (build 2550/release)
Библиотека кодирования : VirtualDubMod build 2550/release
Видео
Идентификатор : 0
Формат : MPEG-4 Visual
Профиль формата : Advanced Simple@L5
Параметр BVOP формата : Да
Параметр QPel формата : Нет
Параметр GMC формата : Без точки перехода
Параметр матрицы формата : Default (MPEG)
Идентификатор кодека : XVID
Идентификатор кодека/Подсказка : XviD
Продолжительность : 1 ч. 39 м.
Битрейт : 1720 Кбит/сек
Ширина : 720 пикселей
Высота : 304 пикселя
Соотношение сторон : 2,35:1
Частота кадров : 23,976 кадра/сек
Цветовое пространство : YUV
Субдискретизация насыщенности : 4:2:0
Битовая глубина : 8 бит
Тип развёртки : Прогрессивная
Метод сжатия : С потерями
Бит/(Пиксели*Кадры) : 0.328
Размер потока : 1,19 Гбайт (81%)
Библиотека кодирования : XviD 1.2.1 (UTC 2008-12-04)
Аудио
Идентификатор : 1
Формат : AC-3
Формат/Информация : Audio Coding 3
Расширение режима : CM (complete main)
Параметр Endianness формата : Big
Идентификатор кодека : 2000
Продолжительность : 1 ч. 39 м.
Вид битрейта : Постоянный
Битрейт : 384 Кбит/сек
Каналы : 6 каналов
Расположение каналов : Front: L C R, Side: L R, LFE
Частота : 48,0 КГц
Битовая глубина : 16 бит
Метод сжатия : С потерями
Размер потока : 272 Мбайт (18%)
Выравнивание : Разделение по промежуткам
Продолжительность промежутка : 42 мс. (1,00 видеокадр)
Время предзагрузки промежутка : 500 мс.
Скриншоты:

Время раздачи: с 09:00 до 23:30

[Цитировать]



Показать сообщения:    

Текущее время: 30-Мар 05:02

Часовой пояс: UTC + 6


Вы не можете начинать темы
Вы не можете отвечать на сообщения
Вы не можете редактировать свои сообщения
Вы не можете удалять свои сообщения
Вы не можете голосовать в опросах
Вы не можете прикреплять файлы к сообщениям
Вы не можете скачивать файлы

!ВНИМАНИЕ!
Сайт не предоставляет электронные версии произведений, а занимается лишь коллекционированием и каталогизацией ссылок, присылаемых и публикуемых на форуме нашими читателями. Если вы являетесь правообладателем какого-либо представленного материала и не желаете, чтобы ссылка на него находилась в нашем каталоге, свяжитесь с нами, и мы незамедлительно удалим ее. Файлы для обмена на трекере предоставлены пользователями сайта, и администрация не несет ответственности за их содержание. Просьба не заливать файлы, защищенные авторскими правами, а также файлы нелегального содержания!