[ Сегодня идет свободное скачивание без начисления Download ]


Статистика раздачи
Нет
 
   
 
Top  
 
 
-Обыкновенное сердце / The Normal Heart (2014) HDRip- Год выпуска: 2014
Производство: США, HBO, Plan B Entertainment
Жанр: Драма
Описание фильма:
Хроника первых случаев заболевания СПИДом в нью-йоркском гей-сообществе в первой половине 1980-х. У Марка Руффало — центральный образ Неда Уикса, активиста гей-движения, обратившего внимание на неизвестное доселе заболевание, прозванное «раком гомосексуалистов».
Режиссер: Райан Мёрфи
Продюсер: Скотт Фергюсон, Джейсон Блум, Данте Ди Лорето
Актеры: Тейлор Китч, Джонатан Грофф, Мэтт Бомер, Джулия Робертс, Марк Руффало, Джим Парсонс, Дэнис О`Харе, Джо Засо, Финн Уиттрок, Реми Обержонуа, Кори Столл, Джо Мантелло
Перевод: Профессиональный многоголосый

Дата мировой премьеры: 25 мая 2014
Дата Российской премьеры: 27 мая 2014
Продолжительность: 02:12:35
Качество видео: HDRip
Видеокодек: XviD
Битрейт видео: ~1814 Кбит/с
Размер кадра: 720x304
Аудиокодек: AC3, 6 ch
Битрейт аудио: 448 Кбит/с

MediaInfo:

Общее
Полное имя : C:\NNM\Любовь\Lubovj 2014 BDRip.avi
Формат : AVI
Формат/Информация : Audio Video Interleave
Размер файла : 1,46 Гбайт
Продолжительность : 1 ч. 31 м.
Общий поток : 2272 Кбит/сек
Программа кодирования : VirtualDubMod 1.5.10.3
Библиотека кодирования : VirtualDubMod build 2550/release
Видео
Идентификатор : 0
Формат : MPEG-4 Visual
Профиль формата : Advanced [email protected]
Параметр BVOP формата : 2
Параметр QPel формата : Нет
Параметр GMC формата : Без точки перехода
Параметр матрицы формата : Default (MPEG)
Идентификатор кодека : XVID
Идентификатор кодека/Подсказка : XviD
Продолжительность : 1 ч. 31 м.
Битрейт : 1814 Кбит/сек
Ширина : 720 пикселей
Высота : 304 пикселя
Соотношение сторон : 2,35:1
Частота кадров : 23,976 кадра/сек
Цветовое пространство : YUV
Субдискретизация насыщенности : 4:2:0
Битовая глубина : 8 бит
Тип развёртки : Прогрессивная
Метод сжатия : С потерями
Бит/(Пиксели*Кадры) : 0.346
Размер потока : 1,16 Гбайт (80%)
Библиотека кодирования : XviD 1.2.1 (UTC 2008-12-04)
Аудио
Идентификатор : 1
Формат : AC-3
Формат/Информация : Audio Coding 3
Расширение режима : CM (complete main)
Идентификатор кодека : 2000
Продолжительность : 1 ч. 31 м.
Вид битрейта : Постоянный
Битрейт : 448 Кбит/сек
Каналы : 6 каналов
Расположение каналов : Front: L C R, Side: L R, LFE
Частота : 48,0 КГц
Битовая глубина : 16 бит
Метод сжатия : С потерями
Размер потока : 294 Мбайт (20%)
Выравнивание : Разделение по промежуткам
Продолжительность промежутка : 42 мс. (1,00 видеокадр)
Время предзагрузки промежутка : 500 мс.
Скриншоты:

Время раздачи: Круглосуточно до 10 скачавших

[Цитировать]

Топик был перенесен из форума Новинки кинопроката в форум Драма
Henkok



Показать сообщения:    

Текущее время: 04-Дек 19:21

Часовой пояс: UTC + 3


Вы не можете начинать темы
Вы не можете отвечать на сообщения
Вы не можете редактировать свои сообщения
Вы не можете удалять свои сообщения
Вы не можете голосовать в опросах
Вы не можете прикреплять файлы к сообщениям
Вы не можете скачивать файлы

!ВНИМАНИЕ!
Сайт не предоставляет электронные версии произведений, а занимается лишь коллекционированием и каталогизацией ссылок, присылаемых и публикуемых на форуме нашими читателями. Если вы являетесь правообладателем какого-либо представленного материала и не желаете, чтобы ссылка на него находилась в нашем каталоге, свяжитесь с нами, и мы незамедлительно удалим ее. Файлы для обмена на трекере предоставлены пользователями сайта, и администрация не несет ответственности за их содержание. Просьба не заливать файлы, защищенные авторскими правами, а также файлы нелегального содержания!