[ Сегодня идет свободное скачивание без начисления Download ]


Статистика раздачи
Нет
 
   
 
Top  
 
 
-Белль и Себастьян / Belle et Sebastien (2013) HDRip- Год выпуска: 2013
Производство: Франция / Centre National de la Cinematographie (CNC)
Жанр: Приключения
Описание фильма:
Там, где заснеженные горы поднимаются почти до неба, а окружающая природа кажется девственной, разворачивается трогательная история неразлучной дружбы между дикой собакой и маленьким мальчиком – история Белль и Себастьяна. Небольшая идиллическая горная деревушка во французских Альпах, перед приходом немцев в годы второй мировой войны. Жители деревушки взволнованы появлением большой собаки, которая, по их мнению, способна лишь бесчинствовать в округе. В то время, как все местное сообщество устраивает настоящую охоту за псом, маленький мальчик-сирота Себастьян смотрит на внушающее всем страх животное другими глазами.
Они становятся неразлучными друзьями, и впереди - большое приключение, которое им придётся пережить вдвоём...
Режиссер: Николя Ванье
Актеры: Феликс Боссюэ, Чеки Карио, Марго Шателье, Дмитрий Сторож, Андреас Питшманн, Юрбен Канселье, Мехди Эль Глауи, Ян Оливер Шредер, Том Зоммерлатте
Продолжительность: 01:39:28
Качество видео: HDRip-AVC
Перевод: Любительский одноголосый (АнВад)
Язык субтитров: Русский
Вид субтитров: Вшитые (Отключаемые)
Дата мировой премьеры: 24 августа 2013

Видеокодек: MPEG-4 AVC/H.264
Битрейт видео: ~2235 Кбит/сек
Размер кадра: 1024x432
Аудио #1: AC3 5.1, 448 Кбит/сек - Любительский одноголосый (АнВад)
Аудио #2: AC3 5.1, 448 Кбит/сек - Оригинальная звуковая дорожка (Французский)
Сэмпл: Скачать

MediaInfo:

Общее
Уникальный идентификатор : 227027758017983211762305952175410664978 (0xAACBF4AB34AFE4ACA2F18410CA245612)
Формат : Matroska
Версия формата : Version 1
Размер файла : 2,18 Гбайт
Продолжительность : 1 ч. 39 м.
Общий поток : 3134 Кбит/сек
Дата кодирования : UTC 2014-04-24 20:52:49
Программа кодирования : mkvmerge v2.1.0 ('Another Place To Fall') built on Aug 19 2007 13:40:07
Библиотека кодирования : libebml v0.7.7 + libmatroska v0.8.1
Видео
Идентификатор : 1
Формат : AVC
Формат/Информация : Advanced Video Codec
Профиль формата : High@L4.1
Параметр CABAC формата : Да
Параметр ReFrames формата : 8 кадров
Идентификатор кодека : V_MPEG4/ISO/AVC
Продолжительность : 1 ч. 39 м.
Битрейт : 2235 Кбит/сек
Ширина : 1024 пикселя
Высота : 432 пикселя
Соотношение сторон : 2,40:1
Режим частоты кадров : Постоянный
Частота кадров : 24,000 кадра/сек
Цветовое пространство : YUV
Субдискретизация насыщенности : 4:2:0
Битовая глубина : 8 бит
Тип развёртки : Прогрессивная
Бит/(Пиксели*Кадры) : 0.211
Размер потока : 1,51 Гбайт (69%)
Библиотека кодирования : x264 core 125 r2200 999b753
Настройки программы : cabac=1 / ref=8 / deblock=1:-2:-2 / analyse=0x3:0x113 / me=umh / subme=9 / psy=1 / psy_rd=1.00:0.00 / mixed_ref=1 / me_range=32 / chroma_me=1 / trellis=2 / 8x8dct=1 / cqm=0 / deadzone=21,11 / fast_pskip=0 / chroma_qp_offset=-2 / threads=6 / lookahead_threads=1 / sliced_threads=0 / nr=0 / decimate=0 / interlaced=0 / bluray_compat=0 / constrained_intra=0 / bframes=8 / b_pyramid=2 / b_adapt=2 / b_bias=0 / direct=3 / weightb=1 / open_gop=0 / weightp=2 / keyint=240 / keyint_min=23 / scenecut=40 / intra_refresh=0 / rc=2pass / mbtree=0 / bitrate=2235 / ratetol=1.0 / qcomp=0.60 / qpmin=0 / qpmax=69 / qpstep=4 / cplxblur=20.0 / qblur=0.5 / ip_ratio=1.40 / pb_ratio=1.30 / aq=1:1.10
Язык : English
Default : Да
Forced : Нет
Аудио #1
Идентификатор : 2
Формат : AC-3
Формат/Информация : Audio Coding 3
Расширение режима : CM (complete main)
Параметр Endianness формата : Big
Идентификатор кодека : A_AC3
Продолжительность : 1 ч. 39 м.
Вид битрейта : Постоянный
Битрейт : 448 Кбит/сек
Каналы : 6 каналов
Расположение каналов : Front: L C R, Side: L R, LFE
Частота : 48,0 КГц
Битовая глубина : 16 бит
Метод сжатия : С потерями
Размер потока : 319 Мбайт (14%)
Заголовок : Любительский одноголосый (АнВад)
Язык : Russian
Default : Да
Forced : Нет
Аудио #2
Идентификатор : 3
Формат : AC-3
Формат/Информация : Audio Coding 3
Расширение режима : CM (complete main)
Параметр Endianness формата : Big
Идентификатор кодека : A_AC3
Продолжительность : 1 ч. 39 м.
Вид битрейта : Постоянный
Битрейт : 448 Кбит/сек
Каналы : 6 каналов
Расположение каналов : Front: L C R, Side: L R, LFE
Частота : 48,0 КГц
Битовая глубина : 16 бит
Метод сжатия : С потерями
Размер потока : 319 Мбайт (14%)
Заголовок : Оригинал
Язык : French
Default : Нет
Forced : Нет
Текст
Идентификатор : 4
Формат : UTF-8
Идентификатор кодека : S_TEXT/UTF8
Идентификатор кодека/Информация : UTF-8 Plain Text
Заголовок : Русские
Язык : Russian
Default : Да
Forced : Нет
Скриншоты:
Время раздачи: 10:00-24:00

[Цитировать]

Топик был перенесен из форума Новинки кинопроката в форум Приключения / Исторический
Henkok



Показать сообщения:    

Текущее время: 09-Дек 00:57

Часовой пояс: UTC + 3


Вы не можете начинать темы
Вы не можете отвечать на сообщения
Вы не можете редактировать свои сообщения
Вы не можете удалять свои сообщения
Вы не можете голосовать в опросах
Вы не можете прикреплять файлы к сообщениям
Вы не можете скачивать файлы

!ВНИМАНИЕ!
Сайт не предоставляет электронные версии произведений, а занимается лишь коллекционированием и каталогизацией ссылок, присылаемых и публикуемых на форуме нашими читателями. Если вы являетесь правообладателем какого-либо представленного материала и не желаете, чтобы ссылка на него находилась в нашем каталоге, свяжитесь с нами, и мы незамедлительно удалим ее. Файлы для обмена на трекере предоставлены пользователями сайта, и администрация не несет ответственности за их содержание. Просьба не заливать файлы, защищенные авторскими правами, а также файлы нелегального содержания!