[ Сегодня идет свободное скачивание без начисления Download ]


Статистика раздачи
Нет
 
   
 
Top  
 
 
-Люди Икс: Дни минувшего будущего / X-Men: Days of Future Past (2014) WEBRip [H.264/720p-LQ] [Звук c TS]- Год выпуска: 2014
Производство: США, Великобритания, 20th Century Fox Film Corporation, Bad Hat Harry Productions, Marvel Entertainment, Marv Films, Dune Entertainment
Жанр: Фантастика, Приключения, Боевик
Режиссер: Брайан Сингер
Продюсер: Саймон Кинберг, Хатч Паркер, Лорен Шулер Доннер
Актеры: Майкл Фассбендер, Джеймс МакЭвой, Хью Джекман, Дженнифер Лоуренс, Иэн МакКеллен, Патрик Стюарт, Николас Холт, Эллен Пейдж, Холли Берри, Питер Динклэйдж
Описание фильма:
В недалёком будущем мутанты близки к истреблению роботами-охотниками на мутантов Стражами. Единственная надежда для мутантов выжить — предотвратить череду роковых событий, приведших к появлению Стражей. С помощью своих способностей, Китти Прайд перемещает сознание Росомахи в его молодое тело в 1973 год. В прошлом всё оказывается не так радужно: молодой Профессор Икс окончательно разочарован в своих идеях, Магнето содержится в тюрьме глубоко под землёй, а человечество не знает как реагировать на широкое появление мутантов…
Перевод: Дублированный (Звук c TS)
Субтитры: Вшитые не отключаемые
Язык субтитров: Корейский

Дата мировой премьеры: 10 мая 2014
Дата российской премьеры: 22 мая 2014, «Двадцатый Век Фокс СНГ»
Дата украинской премьеры: 22 мая 2014, «Ukrainian Film Distribution»
Дата выхода DVD/Blu-Ray релиза: 2 октября 2014, «Двадцатый Век Фокс СНГ»
Продолжительность: 02:11:09
Качество видео: WEBRip [H.264/720p-LQ]
Видеокодек: MPEG-4 AVC/H.264
Битрейт видео: ~4092 kbps
Размер кадра: 1280x720
Аудио #1: Русский: AC-3, 48.0 KHz, 2 ch, 256 Kbps, CBR
Аудио #2: Английский: MP3, 44.1 KHz, 2 ch, 192 Kbps, CBR
Сэмпл: Скачать

MediaInfo:

Общее
Уникальный идентификатор : 243865681230696689817076244750054487002 (0xB776D260C48D125DA1BC7EFC05C073DA)
Полное имя : D:\Фильмы\Ludi.X.Dni.minuvshego.budushego.2014.Dt.WEBRip.720p.mkv
Формат : Matroska
Версия формата : Version 4 / Version 2
Размер файла : 4,24 Гбайт
Продолжительность : 2 ч. 11 м.
Общий поток : 4633 Кбит/сек
Дата кодирования : UTC 2014-08-16 23:04:59
Программа кодирования : mkvmerge v7.0.0 ('Where We Going') 64bit built on Jun 9 2014 15:16:27
Библиотека кодирования : PotEncoder
DURATION : 02:11:09.184000000
NUMBER_OF_FRAMES : 245912
NUMBER_OF_BYTES : 251813888
_STATISTICS_WRITING_APP : mkvmerge v7.0.0 ('Where We Going') 64bit built on Jun 9 2014 15:16:27
_STATISTICS_WRITING_DATE_UTC : 2014-08-16 23:04:59
_STATISTICS_TAGS : BPS DURATION NUMBER_OF_FRAMES NUMBER_OF_BYTES
Видео
Идентификатор : 1
Формат : AVC
Формат/Информация : Advanced Video Codec
Профиль формата : High@L4.1
Параметр CABAC формата : Да
Параметр ReFrames формата : 5 кадров
Идентификатор кодека : V_MPEG4/ISO/AVC
Продолжительность : 2 ч. 11 м.
Битрейт : 4092 Кбит/сек
Ширина : 1280 пикселей
Высота : 720 пикселей
Соотношение сторон : 16:9
Режим частоты кадров : Постоянный
Частота кадров : 30,181 кадров/сек
Цветовое пространство : YUV
Субдискретизация насыщенности : 4:2:0
Битовая глубина : 8 бит
Тип развёртки : Прогрессивная
Бит/(Пиксели*Кадры) : 0.147
Размер потока : 3,75 Гбайт (88%)
Default : Да
Forced : Нет
DURATION : 02:11:09.227000000
NUMBER_OF_FRAMES : 237525
NUMBER_OF_BYTES : 4113613379
_STATISTICS_WRITING_APP : mkvmerge v7.0.0 ('Where We Going') 64bit built on Jun 9 2014 15:16:27
_STATISTICS_WRITING_DATE_UTC : 2014-08-16 23:04:59
_STATISTICS_TAGS : BPS DURATION NUMBER_OF_FRAMES NUMBER_OF_BYTES
Аудио #1
Идентификатор : 2
Формат : AC-3
Формат/Информация : Audio Coding 3
Расширение режима : CM (complete main)
Параметр Endianness формата : Big
Идентификатор кодека : A_AC3
Продолжительность : 2 ч. 11 м.
Вид битрейта : Постоянный
Битрейт : 256 Кбит/сек
Каналы : 2 канала
Расположение каналов : Front: L R
Частота : 48,0 КГц
Битовая глубина : 16 бит
Метод сжатия : С потерями
Размер потока : 240 Мбайт (6%)
Default : Да
Forced : Нет
DURATION : 02:11:09.164000000
NUMBER_OF_FRAMES : 301242
NUMBER_OF_BYTES : 188860290
_STATISTICS_WRITING_APP : mkvmerge v7.0.0 ('Where We Going') 64bit built on Jun 9 2014 15:16:27
_STATISTICS_WRITING_DATE_UTC : 2014-08-16 23:04:59
_STATISTICS_TAGS : BPS DURATION NUMBER_OF_FRAMES NUMBER_OF_BYTES
Аудио #2
Идентификатор : 3
Формат : MPEG Audio
Версия формата : Version 1
Профиль формата : Layer 3
Режим : Joint stereo
Расширение режима : MS Stereo
Идентификатор кодека : A_MPEG/L3
Идентификатор кодека/Подсказка : MP3
Продолжительность : 2 ч. 11 м.
Вид битрейта : Постоянный
Битрейт : 192 Кбит/сек
Каналы : 2 канала
Частота : 44,1 КГц
Метод сжатия : С потерями
Задержка видео : 26 мс.
Размер потока : 180 Мбайт (4%)
Библиотека кодирования : LAME3.98.2
Default : Нет
Forced : Нет

Avdump:

File: D:\Фильмы\Ludi.X.Dni.minuvshego.budushego.2014.Dt.WEBRip.720p.mkv
Duration: 02:11:09 (7869.23)
Track #1: video
lang: und (1)
codc: V_MPEG4/ISO/AVC -> H264/AVC (22)
reso: 1280x720 -> 16:9
fram: 30.184 fps
rate: 4182 kbps (4181.99)
dura: 02:11:09 (7869.19)
size: 3.83 GB (4113613379)
Track #2: audio
lang: und -> Unknown (1)
codc: A_AC3 -> AC3 (2)
chan: 2 -> Stereo
samp: 48000 Hz
rate: 256 kbps (256.04)
dura: 02:11:09 (7868.93)
size: 240.18 MB (251845686)
Track #3: audio
lang: und -> Unknown (1)
codc: A_MPEG/L3 -> MP3 CBR (5)
chan: 2 -> Stereo
samp: 44100 Hz
rate: 192 kbps (192.19)
dura: 02:11:09 (7869.01)
size: 180.29 MB (189044155)
Sizes: (check sanity)
disk: 4.24 GB (4556839796)
trac: 4.24 GB (4554503220) [based on track size]
bitr: 4.24 GB (4554515915) [based on bitrate]
tdif: 2.23 MB (2336576) 0.05%
bdif: 2.22 MB (2323880) 0.05%
Скриншоты:

[Цитировать]



Показать сообщения:    

Текущее время: 07-Дек 13:38

Часовой пояс: UTC + 3


Вы не можете начинать темы
Вы не можете отвечать на сообщения
Вы не можете редактировать свои сообщения
Вы не можете удалять свои сообщения
Вы не можете голосовать в опросах
Вы не можете прикреплять файлы к сообщениям
Вы не можете скачивать файлы

!ВНИМАНИЕ!
Сайт не предоставляет электронные версии произведений, а занимается лишь коллекционированием и каталогизацией ссылок, присылаемых и публикуемых на форуме нашими читателями. Если вы являетесь правообладателем какого-либо представленного материала и не желаете, чтобы ссылка на него находилась в нашем каталоге, свяжитесь с нами, и мы незамедлительно удалим ее. Файлы для обмена на трекере предоставлены пользователями сайта, и администрация не несет ответственности за их содержание. Просьба не заливать файлы, защищенные авторскими правами, а также файлы нелегального содержания!