[ Сегодня идет свободное скачивание без начисления Download ]


Статистика раздачи
Нет
 
   
 
Top  
 
 
Nu:Tone — Words and Pictures
Жанр: Drum & Bass / Liquid Funk
Страна-производитель диска: UK
Год издания диска: 2011
Издатель (лейбл): Hospital Records
Номер по каталогу: NHS184CD
Аудио кодек: FLAC (*.flac)
Тип рипа: tracks+.cue
Битрейт аудио: lossless
Продолжительность: 62m 44s
Источник (релизер): Закрытый трекер
Треклист:
01. Nu:Tone — Shine In (feat. Natalie Williams) (5:20)
02. Nu:Tone — Coming Back (feat. Heidi Vogel) (4:52)
03. Nu:Tone — The Feeling (feat. Ben Westbeech) (5:32)
04. Nu:Tone — The First Time Ever (Feat. Natalie Williams) (4:51)
05. Nu:Tone — Piece of You (feat. Stac) (4:03)
06. Nu:Tone — Broken (feat. Kyan) (4:44)
07. Nu:Tone — Win the Fight (feat. Lisa Milett) (4:52)
08. Nu:Tone — Set Me Free (4:46)
09. Nu:Tone — One (feat. Sophie Paul) (4:19)
10. Nu:Tone — Do You Like It? (feat. Natalie Williams) (4:54)
11. Nu:Tone — The Love Has Come (feat. Kyan) (4:12)
12. Nu:Tone — Invisible (feat. 4Hero & Natalie Williams) (4:31)
13. Unicorn Kid — Wild Life (Nu:Tone Remix) (5:47)

.log

Exact Audio Copy V1.0 beta 1 from 15. November 2010
EAC extraction logfile from 12. March 2011, 2:17
Nu:Tone / Words and Pictures
Used drive : hp DVDRAM GT30L Adapter: 0 ID: 1
Read mode : SecureUtilize accurate stream : YesDefeat audio cache : YesMake use of C2 pointers : No
Read offset correction : 103Overread into Lead-In and Lead-Out : NoFill up missing offset samples with silence : YesDelete leading and trailing silent blocks : NoNull samples used in CRC calculations : YesUsed interface : Native Win32 interface for Win NT & 2000Gap handling : Appended to previous track
Used output format : User Defined EncoderSelected bitrate : 768 kBit/sQuality : HighAdd ID3 tag : NoCommand line compressor : C:\Program Files\Exact Audio Copy\FLAC\FLAC.EXEAdditional command line options : -V -8 -T "artist=%a" -T "title=%t" -T "album=%g" -T "date=%y" -T "tracknumber=%n" -T "genre=%m" %s
TOC of the extracted CD
Track | Start | Length | Start sector | End sector --------------------------------------------------------- 1 | 0:00.00 | 5:19.71 | 0 | 23995 2 | 5:19.71 | 4:52.32 | 23996 | 45927 3 | 10:12.28 | 5:32.21 | 45928 | 70848 4 | 15:44.49 | 4:51.08 | 70849 | 92681 5 | 20:35.57 | 4:02.57 | 92682 | 110888 6 | 24:38.39 | 4:43.39 | 110889 | 132152 7 | 29:22.03 | 4:52.35 | 132153 | 154087 8 | 34:14.38 | 4:45.55 | 154088 | 175517 9 | 39:00.18 | 4:19.05 | 175518 | 194947 10 | 43:19.23 | 4:54.28 | 194948 | 217025 11 | 48:13.51 | 4:12.32 | 217026 | 235957 12 | 52:26.08 | 4:31.26 | 235958 | 256308 13 | 56:57.34 | 5:47.24 | 256309 | 282357
Track 1
Filename C:\Users\alxspb\Music\FLAC\Nu-Tone - Words and Pictures (2011)\Nu-Tone - Words and Pictures (2011)\01. Nu-Tone - Shine In (feat. Natalie Williams).wav
Pre-gap length 0:00:02.00
Peak level 99.9 % Extraction speed 1.3 X Track quality 100.0 % Test CRC D4879DB6 Copy CRC D4879DB6 Accurately ripped (confidence 1) [E1B628DF] Copy OK
Track 2
Filename C:\Users\alxspb\Music\FLAC\Nu-Tone - Words and Pictures (2011)\Nu-Tone - Words and Pictures (2011)\02. Nu-Tone - Coming Back (feat. Heidi Vogel).wav
Pre-gap length 0:00:02.00
Peak level 99.9 % Extraction speed 1.5 X Track quality 100.0 % Test CRC EEB22A79 Copy CRC EEB22A79 Accurately ripped (confidence 1) [2E46A493] Copy OK
Track 3
Filename C:\Users\alxspb\Music\FLAC\Nu-Tone - Words and Pictures (2011)\Nu-Tone - Words and Pictures (2011)\03. Nu-Tone - The Feeling (feat. Ben Westbeech).wav
Peak level 99.9 % Extraction speed 1.6 X Track quality 100.0 % Test CRC 6577609A Copy CRC 6577609A Accurately ripped (confidence 1) [63053209] Copy OK
Track 4
Filename C:\Users\alxspb\Music\FLAC\Nu-Tone - Words and Pictures (2011)\Nu-Tone - Words and Pictures (2011)\04. Nu-Tone - The First Time Ever (Feat. Natalie Williams).wav
Peak level 99.9 % Extraction speed 1.8 X Track quality 100.0 % Test CRC 2E6B4BAD Copy CRC 2E6B4BAD Accurately ripped (confidence 1) [9B079D22] Copy OK
Track 5
Filename C:\Users\alxspb\Music\FLAC\Nu-Tone - Words and Pictures (2011)\Nu-Tone - Words and Pictures (2011)\05. Nu-Tone - Piece of You (feat. Stac).wav
Peak level 99.9 % Extraction speed 1.6 X Track quality 99.9 % Test CRC 2242AD56 Copy CRC 2242AD56 Accurately ripped (confidence 1) [0FCC7F1C] Copy OK
Track 6
Filename C:\Users\alxspb\Music\FLAC\Nu-Tone - Words and Pictures (2011)\Nu-Tone - Words and Pictures (2011)\06. Nu-Tone - Broken (feat. Kyan).wav
Peak level 99.9 % Extraction speed 2.0 X Track quality 100.0 % Test CRC 0D85278F Copy CRC 0D85278F Accurately ripped (confidence 1) [E13EF913] Copy OK
Track 7
Filename C:\Users\alxspb\Music\FLAC\Nu-Tone - Words and Pictures (2011)\Nu-Tone - Words and Pictures (2011)\07. Nu-Tone - Win the Fight (feat. Lisa Milett).wav
Peak level 99.9 % Extraction speed 2.1 X Track quality 100.0 % Test CRC 63CC557C Copy CRC 63CC557C Accurately ripped (confidence 1) [3D0C83D4] Copy OK
Track 8
Filename C:\Users\alxspb\Music\FLAC\Nu-Tone - Words and Pictures (2011)\Nu-Tone - Words and Pictures (2011)\08. Nu-Tone - Set Me Free.wav
Peak level 99.9 % Extraction speed 2.2 X Track quality 100.0 % Test CRC CE6D12A8 Copy CRC CE6D12A8 Accurately ripped (confidence 1) [46C28075] Copy OK
Track 9
Filename C:\Users\alxspb\Music\FLAC\Nu-Tone - Words and Pictures (2011)\Nu-Tone - Words and Pictures (2011)\09. Nu-Tone - One (feat. Sophie Paul).wav
Peak level 99.9 % Extraction speed 2.3 X Track quality 100.0 % Test CRC 548FB804 Copy CRC 548FB804 Accurately ripped (confidence 1) [20AC772F] Copy OK
Track 10
Filename C:\Users\alxspb\Music\FLAC\Nu-Tone - Words and Pictures (2011)\Nu-Tone - Words and Pictures (2011)\10. Nu-Tone - Do You Like It (feat. Natalie Williams).wav
Peak level 99.9 % Extraction speed 2.4 X Track quality 100.0 % Test CRC A8918F2C Copy CRC A8918F2C Accurately ripped (confidence 1) [AD45FCAC] Copy OK
Track 11
Filename C:\Users\alxspb\Music\FLAC\Nu-Tone - Words and Pictures (2011)\Nu-Tone - Words and Pictures (2011)\11. Nu-Tone - The Love Has Come (feat. Kyan).wav
Peak level 99.9 % Extraction speed 2.4 X Track quality 100.0 % Test CRC 50D8EBC9 Copy CRC 50D8EBC9 Accurately ripped (confidence 1) [46288C53] Copy OK
Track 12
Filename C:\Users\alxspb\Music\FLAC\Nu-Tone - Words and Pictures (2011)\Nu-Tone - Words and Pictures (2011)\12. Nu-Tone - Invisible (feat. 4Hero & Natalie Williams).wav
Peak level 99.9 % Extraction speed 2.6 X Track quality 100.0 % Test CRC 52424A28 Copy CRC 52424A28 Accurately ripped (confidence 1) [EC9EF81D] Copy OK
Track 13
Filename C:\Users\alxspb\Music\FLAC\Nu-Tone - Words and Pictures (2011)\Nu-Tone - Words and Pictures (2011)\13. Nu-Tone - Unicorn Kid , Wild Life (Nu-Tone Remix).wav
Peak level 99.9 % Extraction speed 2.7 X Track quality 100.0 % Test CRC 80F4FE14 Copy CRC 80F4FE14 Accurately ripped (confidence 1) [F6413533] Copy OK
All tracks accurately ripped
No errors occurred
End of status report

.cue

REM GENRE "Drum & Bass"REM DATE 2011REM DISCID AC0EB40DREM COMMENT "ExactAudioCopy v1.0b1"PERFORMER "Nu:Tone"TITLE "Words and Pictures"FILE "01. Nu-Tone - Shine In (feat. Natalie Williams).flac" WAVE TRACK 01 AUDIO TITLE "Shine In (feat. Natalie Williams)" PERFORMER "Nu:Tone" INDEX 01 00:00:00 TRACK 02 AUDIO TITLE "Coming Back (feat. Heidi Vogel)" PERFORMER "Nu:Tone" INDEX 00 05:17:71FILE "02. Nu-Tone - Coming Back (feat. Heidi Vogel).flac" WAVE INDEX 01 00:00:00FILE "03. Nu-Tone - The Feeling (feat. Ben Westbeech).flac" WAVE TRACK 03 AUDIO TITLE "The Feeling (feat. Ben Westbeech)" PERFORMER "Nu:Tone" INDEX 01 00:00:00FILE "04. Nu-Tone - The First Time Ever (Feat. Natalie Williams).flac" WAVE TRACK 04 AUDIO TITLE "The First Time Ever (Feat. Natalie Williams)" PERFORMER "Nu:Tone" INDEX 01 00:00:00FILE "05. Nu-Tone - Piece of You (feat. Stac).flac" WAVE TRACK 05 AUDIO TITLE "Piece of You (feat. Stac)" PERFORMER "Nu:Tone" INDEX 01 00:00:00FILE "06. Nu-Tone - Broken (feat. Kyan).flac" WAVE TRACK 06 AUDIO TITLE "Broken (feat. Kyan)" PERFORMER "Nu:Tone" INDEX 01 00:00:00FILE "07. Nu-Tone - Win the Fight (feat. Lisa Milett).flac" WAVE TRACK 07 AUDIO TITLE "Win the Fight (feat. Lisa Milett)" PERFORMER "Nu:Tone" INDEX 01 00:00:00FILE "08. Nu-Tone - Set Me Free.flac" WAVE TRACK 08 AUDIO TITLE "Set Me Free" PERFORMER "Nu:Tone" INDEX 01 00:00:00FILE "09. Nu-Tone - One (feat. Sophie Paul).flac" WAVE TRACK 09 AUDIO TITLE "One (feat. Sophie Paul)" PERFORMER "Nu:Tone" INDEX 01 00:00:00FILE "10. Nu-Tone - Do You Like It (feat. Natalie Williams).flac" WAVE TRACK 10 AUDIO TITLE "Do You Like It? (feat. Natalie Williams)" PERFORMER "Nu:Tone" INDEX 01 00:00:00FILE "11. Nu-Tone - The Love Has Come (feat. Kyan).flac" WAVE TRACK 11 AUDIO TITLE "The Love Has Come (feat. Kyan)" PERFORMER "Nu:Tone" INDEX 01 00:00:00FILE "12. Nu-Tone - Invisible (feat. 4Hero & Natalie Williams).flac" WAVE TRACK 12 AUDIO TITLE "Invisible (feat. 4Hero & Natalie Williams)" PERFORMER "Nu:Tone" INDEX 01 00:00:00FILE "13. Unicorn Kid - Wild Life (Nu-Tone Remix).flac" WAVE TRACK 13 AUDIO TITLE "Unicorn Kid - Wild Life (Nu:Tone Remix)" PERFORMER "Nu:Tone" INDEX 01 00:00:00

[Цитировать]



Показать сообщения:    

Текущее время: 05-Дек 05:28

Часовой пояс: UTC + 3


Вы не можете начинать темы
Вы не можете отвечать на сообщения
Вы не можете редактировать свои сообщения
Вы не можете удалять свои сообщения
Вы не можете голосовать в опросах
Вы не можете прикреплять файлы к сообщениям
Вы не можете скачивать файлы

!ВНИМАНИЕ!
Сайт не предоставляет электронные версии произведений, а занимается лишь коллекционированием и каталогизацией ссылок, присылаемых и публикуемых на форуме нашими читателями. Если вы являетесь правообладателем какого-либо представленного материала и не желаете, чтобы ссылка на него находилась в нашем каталоге, свяжитесь с нами, и мы незамедлительно удалим ее. Файлы для обмена на трекере предоставлены пользователями сайта, и администрация не несет ответственности за их содержание. Просьба не заливать файлы, защищенные авторскими правами, а также файлы нелегального содержания!