[ Сегодня идет свободное скачивание без начисления Download ]


Статистика раздачи
Нет
 
   
 
Top  
 
 
-Завещание / The Last Will and Testament of Rosalind Leigh (2012) BDRip [H.264/720p-LQ]- Год выпуска: 2012
Производство: Канада
Жанр: Ужасы, Триллер
Описание фильма:
Когда коллекционер антиквариата наследует дом своей раздельно проживавшей матери, он понимает, что она жила в святыне, посвященной некому таинственному культу. А вскоре он приходит к выводу, что гнетущий дух его матери всё еще находится там, и при помощи предметов в доме пытается связаться с ним, чтобы передать срочное сообщение...
Режиссер: Родриго Гудиньо
Актеры: Аарон Пул, Ванесса Редгрейв, Джулиан Ричингс, Стефен МакИнтайр, Шарлотта Салливан, Мич Марковиц, Родриго Гудиньо
Продолжительность: 01:20:18
Качество видео: BDRip
Перевод: Дублированный [Чистый звук]
Субтитры: Отсутствуют

Дата мировой премьеры: 27 октября 2012
Дата российской премьеры: 6 июня 2013, «Кинопром»
Видеокодек: MPEG-4 AVC/H.264
Битрейт видео: ~3000 kb/s
Размер кадра: 1280x718
Аудио 1: АС3 2.0, 192 kb/s, Русский
Аудио 2: АС3 5.1, 448 kb/s, Английский
Сэмпл: Ссылка

MediaInfo:

Общее
Уникальный идентификатор : 205841444065010481529854257890821028320 (0x9ADB9EBE5A9F2731ACB79FBAF33A39E0)
Полное имя : C:Торренты\Завещание.2012.BDRip.720p.mkv
Формат : Matroska
Версия формата : Version 4 / Version 2
Размер файла : 2,04 Гбайт
Продолжительность : 1 ч. 20 м.
Общий поток : 3636 Кбит/сек
Дата кодирования : UTC 2014-08-28 17:25:12
Программа кодирования : mkvmerge v7.1.0 ('Good Love') 64bit built on Jul 27 2014 13:06:55
Библиотека кодирования : libebml v1.3.0 + libmatroska v1.4.1
DURATION : 01:20:17.376000000
NUMBER_OF_FRAMES : 150543
NUMBER_OF_BYTES : 269773056
_STATISTICS_WRITING_APP : mkvmerge v7.1.0 ('Good Love') 64bit built on Jul 27 2014 13:06:55
_STATISTICS_WRITING_DATE_UTC : 2014-08-28 17:25:12
_STATISTICS_TAGS : BPS DURATION NUMBER_OF_FRAMES NUMBER_OF_BYTES
Видео
Идентификатор : 1
Формат : AVC
Формат/Информация : Advanced Video Codec
Профиль формата : [email protected]
Параметр CABAC формата : Да
Параметр ReFrames формата : 8 кадров
Идентификатор кодека : V_MPEG4/ISO/AVC
Продолжительность : 1 ч. 20 м.
Битрейт : 3000 Кбит/сек
Ширина : 1280 пикселей
Высота : 718 пикселей
Соотношение сторон : 16:9
Режим частоты кадров : Постоянный
Частота кадров : 23,976 кадра/сек
Цветовое пространство : YUV
Субдискретизация насыщенности : 4:2:0
Битовая глубина : 8 бит
Тип развёртки : Прогрессивная
Бит/(Пиксели*Кадры) : 0.136
Размер потока : 1,64 Гбайт (80%)
Библиотека кодирования : x264 core 133 r2334 a3ac64b
Настройки программы : cabac=1 / ref=8 / deblock=1:-3:-3 / analyse=0x3:0x113 / me=umh / subme=11 / psy=1 / psy_rd=1.00:0.00 / mixed_ref=1 / me_range=48 / chroma_me=1 / trellis=2 / 8x8dct=1 / cqm=0 / deadzone=21,11 / fast_pskip=0 / chroma_qp_offset=-2 / threads=6 / lookahead_threads=1 / sliced_threads=0 / nr=0 / decimate=0 / interlaced=0 / bluray_compat=0 / constrained_intra=0 / bframes=8 / b_pyramid=2 / b_adapt=2 / b_bias=0 / direct=3 / weightb=1 / open_gop=0 / weightp=2 / keyint=240 / keyint_min=23 / scenecut=40 / intra_refresh=0 / rc_lookahead=40 / rc=2pass / mbtree=0 / bitrate=3000 / ratetol=1.0 / qcomp=0.60 / qpmin=0 / qpmax=69 / qpstep=4 / cplxblur=20.0 / qblur=0.5 / vbv_maxrate=50000 / vbv_bufsize=52500 / nal_hrd=none / ip_ratio=1.40 / pb_ratio=1.30 / aq=1:0.80
Язык : English
Default : Да
Forced : Нет
Аудио #1
Идентификатор : 2
Формат : AC-3
Формат/Информация : Audio Coding 3
Расширение режима : CM (complete main)
Параметр Endianness формата : Big
Идентификатор кодека : A_AC3
Продолжительность : 1 ч. 20 м.
Вид битрейта : Постоянный
Битрейт : 192 Кбит/сек
Каналы : 2 канала
Расположение каналов : Front: L R
Частота : 48,0 КГц
Битовая глубина : 16 бит
Метод сжатия : С потерями
Размер потока : 110 Мбайт (5%)
Заголовок : Dub
Язык : Russian
Default : Да
Forced : Нет
Аудио #2
Идентификатор : 3
Формат : AC-3
Формат/Информация : Audio Coding 3
Расширение режима : CM (complete main)
Параметр Endianness формата : Big
Идентификатор кодека : A_AC3
Продолжительность : 1 ч. 20 м.
Вид битрейта : Постоянный
Битрейт : 448 Кбит/сек
Каналы : 6 каналов
Расположение каналов : Front: L C R, Side: L R, LFE
Частота : 48,0 КГц
Битовая глубина : 16 бит
Метод сжатия : С потерями
Размер потока : 257 Мбайт (12%)
Язык : English
Default : Нет
Forced : Нет
Меню
00:00:00.000 : :Chapter 01
00:02:42.704 : :Chapter 02
00:05:46.888 : :Chapter 03
00:14:57.813 : :Chapter 04
00:21:25.784 : :Chapter 05
00:27:01.286 : :Chapter 06
00:35:05.311 : :Chapter 07
00:40:50.906 : :Chapter 08
00:46:13.854 : :Chapter 09
00:50:55.302 : :Chapter 10
00:59:24.435 : :Chapter 11
01:07:46.187 : :Chapter 12
01:15:08.879 : :Chapter 13
Скриншоты: Время раздачи: с 10.00 до 22.00Незабываем благодарить релизёров. Приятного просмотра.

[Цитировать]



Показать сообщения:    

Текущее время: 06-Дек 20:59

Часовой пояс: UTC + 3


Вы не можете начинать темы
Вы не можете отвечать на сообщения
Вы не можете редактировать свои сообщения
Вы не можете удалять свои сообщения
Вы не можете голосовать в опросах
Вы не можете прикреплять файлы к сообщениям
Вы не можете скачивать файлы

!ВНИМАНИЕ!
Сайт не предоставляет электронные версии произведений, а занимается лишь коллекционированием и каталогизацией ссылок, присылаемых и публикуемых на форуме нашими читателями. Если вы являетесь правообладателем какого-либо представленного материала и не желаете, чтобы ссылка на него находилась в нашем каталоге, свяжитесь с нами, и мы незамедлительно удалим ее. Файлы для обмена на трекере предоставлены пользователями сайта, и администрация не несет ответственности за их содержание. Просьба не заливать файлы, защищенные авторскими правами, а также файлы нелегального содержания!