[ Сегодня идет свободное скачивание без начисления Download ]


Статистика раздачи
Нет
 
   
 
Top  
 
 
-Неприкасаемые / 1+1 / Intouchables (2011) [H.264/720р-LQ] BDRip- Русское название: Неприкасаемые / 1+1
Оригинальное название: Intouchables
Год выпуска: 2011
Производство: Франция
Жанр: Драма, Комедия
Перевод: Дублированный R5
Субтитры: Русские, английские
Режиссер: Оливье Накаш, Эрик Толедано
Актеры: Франсуа Клюзе, Омар Си, Анн Ле Ни, Одри Флеро, Клотильд Молле, Альба Гайя Крагеде Беллуджи, Сирил Менди, Кристиан Амери, Грегуар Эстерманн
Описание фильма:
Пострадав в результате несчастного случая, богатый аристократ Филипп нанимает в помощники человека, который менее всего подходит для этой работы, — молодого жителя предместья Дрисса, только что освободившегося из тюрьмы. Несмотря на то, что Филипп прикован к инвалидному креслу, Дриссу удается привнести в размеренную жизнь аристократа дух приключений.-
Дата мировой премьеры: 23 сентября 2011
Дата российской премьеры: 26 апреля 2012-Релиз от:
Продолжительность: 01:52:02
Качество видео: BDRip [batonchik]
Видеокодек: MPEG 4 AVC/H.264
Битрейт видео: ~ 2399 Кбит/сек
Размер кадра: 1280х694
Аудио: AC3 5.1, 48,0 КГц, ~384 Кбит/сек - Русский-

MediaInfo 0.7.54

Общее
Уникальный идентификатор : 208645214217718032366242382200877977127 (0x9CF79B48ECD5AE529BF20006B22D8E27)
Полное имя : \Intouchables.2011.BDRip.LQ.720p.NNM-CLUB.mkv
Формат : Matroska
Версия формата : Version 2
Размер файла : 2,18 Гбайт
Продолжительность : 1 ч. 52 м.
Режим общего битрейта : Переменный
Общий поток : 2783 Кбит/сек
Название фильма : Intouchables.2011.BDRip.LQ.720p.NNM-CLUB
Дата кодирования : UTC 2012-05-24 09:49:25
Программа кодирования : mkvmerge v5.5.0 ('Healer') built on Apr 24 2012 23:47:03
Библиотека кодирования : libebml v1.2.3 + libmatroska v1.3.0
Видео
Идентификатор : 1
Формат : AVC
Формат/Информация : Advanced Video Codec
Профиль формата : High@L4.1
Параметр CABAC формата : Да
Параметр ReFrames формата : 9 кадров
Режим смешивания : Header stripping
Идентификатор кодека : V_MPEG4/ISO/AVC
Продолжительность : 1 ч. 52 м.
Вид битрейта : Переменный
Битрейт : 2399 Кбит/сек
Максимальный битрейт : 14,0 Мбит/сек
Ширина : 1280 пикселей
Высота : 694 пикселя
Соотношение сторон : 1,85:1
Частота кадров : 24,000 кадра/сек
Цветовое пространство : YUV
Субдискретизация насыщенности : 4:2:0
Битовая глубина : 8 бит
Тип развёртки : Прогрессивная
Бит/(Пиксели*Кадры) : 0.113
Размер потока : 1,83 Гбайт (84%)
Заголовок : Intouchables.2011.BDRip.LQ.720p.NNM-CLUB
Библиотека кодирования : x264 core 120 r2164 da19765
Настройки программы : cabac=1 / ref=9 / deblock=1:-3:-3 / analyse=0x3:0x133 / me=umh / subme=10 / psy=1 / psy_rd=1.00:0.00 / mixed_ref=1 / me_range=24 / chroma_me=1 / trellis=2 / 8x8dct=1 / cqm=0 / deadzone=21,11 / fast_pskip=1 / chroma_qp_offset=-2 / threads=6 / sliced_threads=0 / slices=4 / nr=0 / decimate=1 / interlaced=0 / bluray_compat=0 / constrained_intra=0 / bframes=8 / b_pyramid=2 / b_adapt=2 / b_bias=0 / direct=1 / weightb=1 / open_gop=0 / weightp=2 / keyint=23 / keyint_min=1 / scenecut=40 / intra_refresh=0 / rc_lookahead=24 / rc=2pass / mbtree=1 / bitrate=2399 / ratetol=1.0 / qcomp=0.60 / qpmin=0 / qpmax=69 / qpstep=4 / cplxblur=20.0 / qblur=0.5 / vbv_maxrate=14000 / vbv_bufsize=14500 / nal_hrd=vbr / ip_ratio=1.40 / aq=1:0.80
Язык : French
Default : Да
Forced : Нет
Аудио
Идентификатор : 2
Формат : AC-3
Формат/Информация : Audio Coding 3
Расширение режима : CM (complete main)
Параметр Endianness формата : Big
Режим смешивания : Header stripping
Идентификатор кодека : A_AC3
Продолжительность : 1 ч. 52 м.
Вид битрейта : Постоянный
Битрейт : 384 Кбит/сек
Каналы : 6 каналов
Расположение каналов : Front: L C R, Side: L R, LFE
Частота : 48,0 КГц
Битовая глубина : 16 бит
Метод сжатия : С потерями
Размер потока : 308 Мбайт (14%)
Язык : Russian
Default : Да
Forced : Нет
Текст #1
Идентификатор : 3
Формат : UTF-8
Идентификатор кодека : S_TEXT/UTF8
Идентификатор кодека/Информация : UTF-8 Plain Text
Язык : Russian
Default : Нет
Forced : Нет
Текст #2
Идентификатор : 4
Формат : UTF-8
Идентификатор кодека : S_TEXT/UTF8
Идентификатор кодека/Информация : UTF-8 Plain Text
Язык : English
Default : Нет
Forced : Нет
Меню
00:00:00.000 : fr:00:00:00.000
00:07:26.000 : fr:00:07:26.000
00:12:54.375 : fr:00:12:54.375
00:18:56.666 : fr:00:18:56.666
00:26:51.958 : fr:00:26:51.958
00:30:50.708 : fr:00:30:50.708
00:37:26.208 : fr:00:37:26.208
00:42:05.666 : fr:00:42:05.666
00:48:45.333 : fr:00:48:45.333
00:54:26.250 : fr:00:54:26.250
00:58:02.708 : fr:00:58:02.708
01:04:06.833 : fr:01:04:06.833
01:14:27.041 : fr:01:14:27.041
01:21:39.833 : fr:01:21:39.833
01:29:26.125 : fr:01:29:26.125
01:35:56.875 : fr:01:35:56.875
01:40:22.041 : fr:01:40:22.041
01:45:12.541 : fr:01:45:12.541

Знаете ли Вы, что...

В основу фильма была положена реальная история французского бизнесмена и аристократа Филиппа Поццо ди Борго, который остался парализованным после несчастного случая 27 июля 1993 года.
На создание картины режиссёрский дуэт вдохновила увиденная ими в 2004 году документальная лента, в которой рассказывалось о том, как молодой житель предместья был нанят присматривать за парализованным инвалидом Филиппом Поццо ди Борго.
Сам Филипп Поццо ди Борго рассказал о своей истории в вышедшей в 2001 году книге «Второй шанс», которая также послужила источником для сценария картины.
Первоначальным выбором на роль Филиппа Поццо ди Борго был Даниель Отой.
Несмотря на то, что ему пришлось играть совершенно обычного человека, Омар Си сбросил при подготовке к съёмкам почти пять килограммов веса. Актёр посчитал, что стандартный житель предместья с такой предысторией должен обладать более атлетическим телосложением, чем он.
Перед началом работы над проектом режиссёры Оливье Накаш и Эрик Толедано лично посетили живущего в Марокко Филиппа Поццо ди Борго. Знакомство с ним и произнесенная им речь многократно увеличили их желание поставить фильм на основе его истории. Сам Филипп Поццо ди Борго дал им огромное количество информации и советов практически по каждой сцене картины.
Незадолго до начала съёмок Франсуа Клюзе лично посетил Филиппа Поццо ди Борго с тем, чтобы получить необходимую информацию для своей роли. В течение некоторого времени актёр наблюдал за его манерой движений, дыхания и речи.
На том, чтобы в первую очередь сделать фильм комедией, а не драмой усиленно настаивал сам Филипп Поццо ди Борго. Он не хотел, чтобы основанный на его жизни фильм стал историей сострадания и жалости.
Омар Си был первым приглашён на роль в фильме ещё до того, как был написан сценарий.
Скриншоты:




Время раздачи: круглогодичноИграю на аккордеоне за "Спасибо"

[Цитировать]



Показать сообщения:    

Текущее время: 28-Мар 00:29

Часовой пояс: UTC + 6


Вы не можете начинать темы
Вы не можете отвечать на сообщения
Вы не можете редактировать свои сообщения
Вы не можете удалять свои сообщения
Вы не можете голосовать в опросах
Вы не можете прикреплять файлы к сообщениям
Вы не можете скачивать файлы

!ВНИМАНИЕ!
Сайт не предоставляет электронные версии произведений, а занимается лишь коллекционированием и каталогизацией ссылок, присылаемых и публикуемых на форуме нашими читателями. Если вы являетесь правообладателем какого-либо представленного материала и не желаете, чтобы ссылка на него находилась в нашем каталоге, свяжитесь с нами, и мы незамедлительно удалим ее. Файлы для обмена на трекере предоставлены пользователями сайта, и администрация не несет ответственности за их содержание. Просьба не заливать файлы, защищенные авторскими правами, а также файлы нелегального содержания!