[ Сегодня идет свободное скачивание без начисления Download ]


Статистика раздачи
Нет
 
   
 
Top  
 
 
-Ровер / The Rover (2014) BDRip [720p]«Бойся человека, которому нечего терять»- Год выпуска: 2014
Производство: Австралия, США
Жанр: Драма, Криминал
Режиссер: Дэвид Мишо
Продюсер: Дэвид Линд, Дэвид Мишо, Лиз Уоттс
Актеры: Гай Пирс, Роберт Паттинсон, Скут МакНэйри, Дэвид Филд, Энтони Хэйес, Джиллиан Джонс, Сьюзэн Прайор, Чан Кьень, Тек Конг Лим, Таванда Маниймо
Описание фильма:
Главный герой преследует по дикой австралийской природе банду, угнавшую его автомобиль, и оказывается в ловушке.
Перевод: Двухголосый закадровый, любительский (Студия "Paradox"); Одноголосый закадровый, любительский (Doctor Joker); Одноголосый закадровый, любительский (R.A.I.M)
Субтитры: Вшитые отключаемые
Язык субтитров: Русский (Notabenoid), Английский (Full, SDH)
Присутствует ненормативная лексика (двухголосый, одноголосый закадровый перевод, субтитры Notabenoid)
Рейтинг MPAA: R (лицам до 17 лет обязательно присутствие взрослого)
Возраст: 16+

Дата мировой премьеры: 18 мая 2014
Дата российской премьеры: 11 сентября 2014, «Top Film Distribution»
Продолжительность: 01:42:53
Качество видео: BDRip [720p] [HDAccess]
Видеокодек: MPEG-4 AVC/H.264
Битрейт видео: ~5682 Kbps
Размер кадра: 1280x534, 23,976 fps
Аудио #1: AC3, 48.0 KHz, 6 ch, 384 Kbps, CBR (Русский, Двухголосый закадровый)
Аудио #2: AC3, 48.0 KHz, 6 ch, 448 Kbps, CBR (Русский, Одноголосый закадровый)
Аудио #3: AC3, 48.0 KHz, 2 ch, 192 Kbps, CBR (Русский, Одноголосый закадровый)
Аудио #4: AC3, 48.0 KHz, 6 ch, 640 Kbps, CBR (Английский)

MediaInfo:

Формат                                   : Matroska
Версия формата                           : Version 2
Размер файла                             : 5,39 Гбайт
Продолжительность                        : 1 ч. 42 м.
Общий поток                              : 7495 Кбит/сек
Название фильма                          : The Rover (2014)
Дата кодирования                         : UTC 2014-09-04 16:51:33
Программа кодирования                    : mkvmerge v6.9.1 ('Blue Panther') 64bit built on Apr 18 2014 18:23:38
Библиотека кодирования                   : libebml v1.3.0 + libmatroska v1.4.1
Видео
Идентификатор                            : 1
Формат                                   : AVC
Формат/Информация                        : Advanced Video Codec
Профиль формата                          : [url=mailto:High@L4.1]High@L4.1[/url]
Параметр CABAC формата                   : Да
Параметр ReFrames формата                : 12 кадров
Идентификатор кодека                     : V_MPEG4/ISO/AVC
Продолжительность                        : 1 ч. 42 м.
Битрейт                                  : 5682 Кбит/сек
Ширина                                   : 1280 пикселей
Высота                                   : 534 пикселя
Соотношение сторон                       : 2,40:1
Режим частоты кадров                     : Постоянный
Частота кадров                           : 23,976 кадра/сек
Цветовое пространство                    : YUV
Субдискретизация насыщенности            : 4:2:0
Битовая глубина                          : 8 бит
Тип развёртки                            : Прогрессивная
Бит/(Пиксели*Кадры)                      : 0.347
Размер потока                            : 4,08 Гбайт (76%)
Библиотека кодирования                   : x264 core 142 r2453kMod ea0ca51
Настройки программы                      : cabac=1 / ref=12 / deblock=1:-3:-3 / analyse=0x3:0x133 / me=umh / subme=10 / psy=1 / fade_compensate=0.00 / psy_rd=1.05:0.00 / mixed_ref=1 / me_range=24 / chroma_me=1 / trellis=2 / 8x8dct=1 / cqm=0 / deadzone=21,11 / fast_pskip=1 / chroma_qp_offset=-2 / threads=12 / lookahead_threads=2 / sliced_threads=0 / nr=0 / decimate=1 / interlaced=0 / bluray_compat=0 / constrained_intra=0 / fgo=0 / bframes=9 / b_pyramid=2 / b_adapt=2 / b_bias=0 / direct=3 / weightb=1 / open_gop=0 / weightp=2 / keyint=230 / keyint_min=23 / scenecut=40 / intra_refresh=0 / rc_lookahead=40 / rc=crf / mbtree=0 / crf=16.2000 / qcomp=0.70 / qpmin=0 / qpmax=69 / qpstep=4 / vbv_maxrate=50000 / vbv_bufsize=62500 / crf_max=0.0 / nal_hrd=none / filler=0 / ip_ratio=1.30 / pb_ratio=1.20 / aq=2:0.90
Язык                                     : English
Default                                  : Да
Forced                                   : Нет
Коэффициенты матрицы                     : BT.709
Аудио #1
Идентификатор                            : 2
Формат                                   : AC-3
Формат/Информация                        : Audio Coding 3
Расширение режима                        : CM (complete main)
Параметр Endianness формата              : Big
Идентификатор кодека                     : A_AC3
Продолжительность                        : 1 ч. 42 м.
Вид битрейта                             : Постоянный
Битрейт                                  : 384 Кбит/сек
Каналы                                   : 6 каналов
Расположение каналов                     : Front: L C R, Side: L R, LFE
Частота                                  : 48,0 КГц
Битовая глубина                          : 16 бит
Метод сжатия                             : С потерями
Размер потока                            : 283 Мбайт (5%)
Заголовок                                : DVO - Paradox
Язык                                     : Russian
Default                                  : Да
Forced                                   : Нет
Аудио #2
Идентификатор                            : 3
Формат                                   : AC-3
Формат/Информация                        : Audio Coding 3
Расширение режима                        : CM (complete main)
Параметр Endianness формата              : Big
Идентификатор кодека                     : A_AC3
Продолжительность                        : 1 ч. 42 м.
Вид битрейта                             : Постоянный
Битрейт                                  : 448 Кбит/сек
Каналы                                   : 6 каналов
Расположение каналов                     : Front: L C R, Side: L R, LFE
Частота                                  : 48,0 КГц
Битовая глубина                          : 16 бит
Метод сжатия                             : С потерями
Размер потока                            : 330 Мбайт (6%)
Заголовок                                : VO - Doctor Joker
Язык                                     : Russian
Default                                  : Нет
Forced                                   : Нет
Аудио #3
Идентификатор                            : 4
Формат                                   : AC-3
Формат/Информация                        : Audio Coding 3
Расширение режима                        : CM (complete main)
Параметр Endianness формата              : Big
Идентификатор кодека                     : A_AC3
Продолжительность                        : 1 ч. 42 м.
Вид битрейта                             : Постоянный
Битрейт                                  : 192 Кбит/сек
Каналы                                   : 2 канала
Расположение каналов                     : Front: L R
Частота                                  : 48,0 КГц
Битовая глубина                          : 16 бит
Метод сжатия                             : С потерями
Размер потока                            : 141 Мбайт (3%)
Заголовок                                : VO - R.A.I.M
Язык                                     : Russian
Default                                  : Нет
Forced                                   : Нет
Аудио #4
Идентификатор                            : 5
Формат                                   : AC-3
Формат/Информация                        : Audio Coding 3
Расширение режима                        : CM (complete main)
Параметр Endianness формата              : Big
Идентификатор кодека                     : A_AC3
Продолжительность                        : 1 ч. 42 м.
Вид битрейта                             : Постоянный
Битрейт                                  : 640 Кбит/сек
Каналы                                   : 6 каналов
Расположение каналов                     : Front: L C R, Side: L R, LFE
Частота                                  : 48,0 КГц
Битовая глубина                          : 16 бит
Метод сжатия                             : С потерями
Размер потока                            : 471 Мбайт (9%)
Язык                                     : English
Default                                  : Нет
Forced                                   : Нет
Текст #1
Идентификатор                            : 6
Формат                                   : UTF-8
Идентификатор кодека                     : S_TEXT/UTF8
Идентификатор кодека/Информация          : UTF-8 Plain Text
Заголовок                                : Notabenoid
Язык                                     : Russian
Default                                  : Нет
Forced                                   : Нет
Текст #2
Идентификатор                            : 7
Формат                                   : UTF-8
Идентификатор кодека                     : S_TEXT/UTF8
Идентификатор кодека/Информация          : UTF-8 Plain Text
Заголовок                                : Full
Язык                                     : English
Default                                  : Нет
Forced                                   : Нет
Текст #3
Идентификатор                            : 8
Формат                                   : UTF-8
Идентификатор кодека                     : S_TEXT/UTF8
Идентификатор кодека/Информация          : UTF-8 Plain Text
Заголовок                                : SDH
Язык                                     : English
Default                                  : Нет
Forced                                   : Нет
Меню
00:00:00.000                             : en:00:00:00.000
00:05:54.145                             : en:00:05:54.145
00:12:57.610                             : en:00:12:57.610
00:17:51.404                             : en:00:17:51.404
00:25:28.360                             : en:00:25:28.360
00:30:34.666                             : en:00:30:34.666
00:36:52.293                             : en:00:36:52.293
00:42:18.703                             : en:00:42:18.703
00:47:47.531                             : en:00:47:47.531
00:53:05.349                             : en:00:53:05.349
01:00:39.344                             : en:01:00:39.344
01:08:57.759                             : en:01:08:57.759
01:17:00.991                             : en:01:17:00.991
01:20:07.511                             : en:01:20:07.511
01:24:39.241                             : en:01:24:39.241
01:33:18.134                             : en:01:33:18.134
Скриншоты:

Время раздачи: 24/7 (до 10 скачавших)

[Цитировать]



Показать сообщения:    

Текущее время: 10-Дек 11:58

Часовой пояс: UTC + 3


Вы не можете начинать темы
Вы не можете отвечать на сообщения
Вы не можете редактировать свои сообщения
Вы не можете удалять свои сообщения
Вы не можете голосовать в опросах
Вы не можете прикреплять файлы к сообщениям
Вы не можете скачивать файлы

!ВНИМАНИЕ!
Сайт не предоставляет электронные версии произведений, а занимается лишь коллекционированием и каталогизацией ссылок, присылаемых и публикуемых на форуме нашими читателями. Если вы являетесь правообладателем какого-либо представленного материала и не желаете, чтобы ссылка на него находилась в нашем каталоге, свяжитесь с нами, и мы незамедлительно удалим ее. Файлы для обмена на трекере предоставлены пользователями сайта, и администрация не несет ответственности за их содержание. Просьба не заливать файлы, защищенные авторскими правами, а также файлы нелегального содержания!