[ Сегодня идет свободное скачивание без начисления Download ]


Статистика раздачи
Нет
 
   
 
Top  
 
 
-Ровер / The Rover (2014) BDRip
«Бойся человека, которому нечего терять»
- Год выпуска: 2014
Производство: Австралия, США / Blue-Tongue Films, Lava Bear Films
Жанр: Драма, криминал
Описание фильма:
Главный герой преследует по дикой австралийской природе банду, угнавшую его автомобиль, и оказывается в ловушке.
Режиссер: Дэвид Мишо / David Mich?d
Продюсер: Дэвид Линд, Дэвид Мишо, Лиз Уоттс
Актеры: Гай Пирс, Чан Кьень, Роберт Паттинсон, Тек Конг Лим, Скут МакНэйри, Таванда Маниймо, Дэвид Филд, Скотт Перри, Ричард Грин, Бен Армер
Язык: Русский, английский
Перевод: Двухголосый закадровый (любительский), Одноголосый закадровый (любительский)
Вид субтитров: Вшитые отключаемые
Язык субтитров: Русский, английский (full, SDH)

Дата мировой премьеры: 18 мая 2014
Дата российской премьеры: 11 сентября 2014, «Top Film Distribution»
Внимание! Присутствует ненормативная лексика.
Рейтинг MPAA: R (лицам до 17 лет обязательно присутствие взрослого)
Возраст: 16+ (зрителям, достигшим 16 лет)
Продолжительность: 01:42:53
Качество видео: BDRip [HDAccess]
Видео: MPEG-4 AVC/H.264, 1920x800 (2.40:1), ~13000 kbps (0.354 bit/pixel), 23.976 fps
Аудио 1: AC3 5.1, 384 kbps, 48 kHz, 16-bit [Русский - двухголосый закадровый «Студия Paradox»]
Аудио 2: AC3 5.1, 448 kbps, 48 kHz, 16-bit [Русский - одноголосый закадровый «А. Матвеев aka Doctor Joker»]
Аудио 3: DTS 5.1, 1536 kbps, 48 kHz, 24-bit [Английский - оригинал]

x264 log

x264 : frame I:764 Avg QP:13.79 size:176779
x264 : frame P:28605 Avg QP:15.24 size: 97103
x264 : frame B:118634 Avg QP:16.34 size: 62290
x264 : consecutive B-frames: 1.0% 3.0% 5.6% 6.2% 11.9% 60.4% 5.8% 1.5% 1.1% 1.2% 2.3%

MediaInfo

Полное имя : D:\Ровер-The.Rover.(2014).BDRip.[1080p].mkv
Формат : Matroska
Версия формата : Version 2
Размер файла : 11,3 Гбайт
Продолжительность : 1 ч. 42 м.
Общий поток : 15,7 Мбит/сек
Название фильма : The Rover (2014)
Дата кодирования : UTC 2014-09-04 18:18:24
Программа кодирования : mkvmerge v5.7.0 ('The Whirlwind') built on Aug 7 2012 14:11:40
Библиотека кодирования : libebml v1.2.3 + libmatroska v1.3.0
Attachment : Yes
Видео
Идентификатор : 1
Формат : AVC
Формат/Информация : Advanced Video Codec
Профиль формата : [email protected]
Параметр CABAC формата : Да
Параметр ReFrames формата : 5 кадров
Идентификатор кодека : V_MPEG4/ISO/AVC
Продолжительность : 1 ч. 42 м.
Битрейт : 13,0 Мбит/сек
Ширина : 1920 пикселей
Высота : 800 пикселей
Соотношение сторон : 2,40:1
Режим частоты кадров : Постоянный
Частота кадров : 23,976 кадра/сек
Цветовое пространство : YUV
Субдискретизация насыщенности : 4:2:0
Битовая глубина : 8 бит
Тип развёртки : Прогрессивная
Бит/(Пиксели*Кадры) : 0.354
Размер потока : 9,37 Гбайт (83%)
Заголовок : Ровер-The.Rover.(2014).BDRip.[1080p]
Библиотека кодирования : x264 core 142 r2453kMod ea0ca51
Настройки программы : cabac=1 / ref=5 / deblock=1:-3:-3 / analyse=0x3:0x133 / me=umh / subme=10 / psy=1 / fade_compensate=0.00 / psy_rd=1.01:0.00 / mixed_ref=1 / me_range=24 / chroma_me=1 / trellis=2 / 8x8dct=1 / cqm=0 / deadzone=21,11 / fast_pskip=0 / chroma_qp_offset=-2 / threads=24 / lookahead_threads=6 / sliced_threads=0 / nr=0 / decimate=0 / interlaced=0 / bluray_compat=0 / constrained_intra=0 / fgo=0 / bframes=10 / b_pyramid=2 / b_adapt=2 / b_bias=0 / direct=3 / weightb=1 / open_gop=0 / weightp=2 / keyint=250 / keyint_min=23 / scenecut=40 / intra_refresh=0 / rc=crf / mbtree=0 / crf=17.4000 / qcomp=0.75 / qpmin=0 / qpmax=69 / qpstep=4 / ip_ratio=1.30 / pb_ratio=1.20 / aq=1:0.84
Язык : English
Default : Да
Forced : Нет
Аудио #1
Идентификатор : 2
Формат : AC-3
Формат/Информация : Audio Coding 3
Расширение режима : CM (complete main)
Параметр Endianness формата : Big
Идентификатор кодека : A_AC3
Продолжительность : 1 ч. 42 м.
Вид битрейта : Постоянный
Битрейт : 384 Кбит/сек
Каналы : 6 каналов
Расположение каналов : Front: L C R, Side: L R, LFE
Частота : 48,0 КГц
Битовая глубина : 16 бит
Метод сжатия : С потерями
Размер потока : 283 Мбайт (2%)
Заголовок : AC3 5.1 / 384 kbps / DVO (Студия Paradox)
Язык : Russian
Default : Да
Forced : Нет
Аудио #2
Идентификатор : 3
Формат : AC-3
Формат/Информация : Audio Coding 3
Расширение режима : CM (complete main)
Параметр Endianness формата : Big
Идентификатор кодека : A_AC3
Продолжительность : 1 ч. 42 м.
Вид битрейта : Постоянный
Битрейт : 448 Кбит/сек
Каналы : 6 каналов
Расположение каналов : Front: L C R, Side: L R, LFE
Частота : 48,0 КГц
Битовая глубина : 16 бит
Метод сжатия : С потерями
Размер потока : 330 Мбайт (3%)
Заголовок : AC3 5.1 / 448 kbps / VO (А. Матвеев aka Doctor Joker)
Язык : Russian
Default : Нет
Forced : Нет
Аудио #3
Идентификатор : 4
Формат : DTS
Формат/Информация : Digital Theater Systems
Идентификатор кодека : A_DTS
Продолжительность : 1 ч. 42 м.
Вид битрейта : Постоянный
Битрейт : 1510 Кбит/сек
Каналы : 6 каналов
Расположение каналов : Front: L C R, Side: L R, LFE
Частота : 48,0 КГц
Битовая глубина : 24 бит
Метод сжатия : С потерями
Размер потока : 1,08 Гбайт (10%)
Заголовок : DTS 5.1 / 1536 kbps / Original
Язык : English
Default : Нет
Forced : Нет
Текст #1
Идентификатор : 5
Формат : UTF-8
Идентификатор кодека : S_TEXT/UTF8
Идентификатор кодека/Информация : UTF-8 Plain Text
Заголовок : Full
Язык : Russian
Default : Нет
Forced : Нет
Текст #2
Идентификатор : 6
Формат : UTF-8
Идентификатор кодека : S_TEXT/UTF8
Идентификатор кодека/Информация : UTF-8 Plain Text
Заголовок : Full
Язык : English
Default : Нет
Forced : Нет
Текст #3
Идентификатор : 7
Формат : UTF-8
Идентификатор кодека : S_TEXT/UTF8
Идентификатор кодека/Информация : UTF-8 Plain Text
Заголовок : SDH
Язык : English
Default : Нет
Forced : Нет
Меню
00:00:00.000 : en:00:00:00.000
00:05:54.145 : en:00:05:54.145
00:12:57.610 : en:00:12:57.610
00:17:51.404 : en:00:17:51.404
00:25:28.360 : en:00:25:28.360
00:30:34.666 : en:00:30:34.666
00:36:52.293 : en:00:36:52.293
00:42:18.703 : en:00:42:18.703
00:47:47.531 : en:00:47:47.531
00:53:05.349 : en:00:53:05.349
01:00:39.344 : en:01:00:39.344
01:08:57.759 : en:01:08:57.759
01:17:00.991 : en:01:17:00.991
01:20:07.511 : en:01:20:07.511
01:24:39.241 : en:01:24:39.241
01:33:18.134 : en:01:33:18.134
Скриншоты:

Время раздачи: 24/7 (до 10 скачавших)

[Цитировать]



Показать сообщения:    

Текущее время: 06-Дек 13:20

Часовой пояс: UTC + 3


Вы не можете начинать темы
Вы не можете отвечать на сообщения
Вы не можете редактировать свои сообщения
Вы не можете удалять свои сообщения
Вы не можете голосовать в опросах
Вы не можете прикреплять файлы к сообщениям
Вы не можете скачивать файлы

!ВНИМАНИЕ!
Сайт не предоставляет электронные версии произведений, а занимается лишь коллекционированием и каталогизацией ссылок, присылаемых и публикуемых на форуме нашими читателями. Если вы являетесь правообладателем какого-либо представленного материала и не желаете, чтобы ссылка на него находилась в нашем каталоге, свяжитесь с нами, и мы незамедлительно удалим ее. Файлы для обмена на трекере предоставлены пользователями сайта, и администрация не несет ответственности за их содержание. Просьба не заливать файлы, защищенные авторскими правами, а также файлы нелегального содержания!