[ Сегодня идет свободное скачивание без начисления Download ]


Статистика раздачи
Нет
 
   
 
Top  
 
 
-Повар на колесах / Chef (2014) BDRip [720p]- Год выпуска: 2014
Производство: США | Aldamisa Entertainment
Жанр: Комедия, Драма, Семейный
Описание фильма: Сюжет фильма разворачивается вокруг шеф-повара Карла Каспера, потерявшего работу в известном ресторане Лос-Анджелеса.
Карл решает организовать сеть закусочных на колесах, чтобы отыскать потерянное кулинарное вдохновение и попутно наладить отношения с семьей.
Режиссер: Джон Фавро
Продюсер: Сергей Беспалов, Джон Фавро, Карен Джонсон
Актеры: Джон Фавро, Джон Легуизамо, Бобби Каннавале, Эмджей Энтони, Скарлетт Йоханссон, Дастин Хоффма,н София Вергара, Оливер Плат, Эми Седарис, Роберт Дауни мл.
Перевод: Дублированный НТВ+
Язык субтитров: Английский
Вид субтитров: Вшитые, отключаемые

Дата мировой премьеры: 28 апреля 2014
Дата российской премьеры: 5 июня 2014, «Top Film Distribution»
Продолжительность: 01:49:38
Качество видео: BDRip 720p [profile-LQ]
Видео: MPEG-4 AVC/H.264, 1280x536 (2.40:1), 25.000 fps, 5 604 Kbps (0.327 bit/pixel)
Аудио #1: AC-3, 48.0 KHz, 6 ch, 384 Kbps, CBR (Русский, дублированный)
Аудио #2: AC-3, 48.0 KHz, 6 ch, 640 Kbps, CBR (Английский, оригинал)

MediaInfo

Complete name \Chef.2014.BDRip.720p.mkv
Format : Matroska
Format version : Version 2
File size : 5.09 GiB
Duration : 1h 49mn
Overall bit rate : 6 629 Kbps
Movie name : Chef 2014
Encoded date : UTC 2014-09-04 18:01:00
Writing application : mkvmerge v5.8.0 ('No Sleep / Pillow') built on Sep 2 2012 15:37:04
Writing library : libebml v1.2.3 + libmatroska v1.3.0
Video
ID : 1
Format : AVC
Format/Info : Advanced Video Codec
Format profile : [email protected]
Format settings, CABAC : Yes
Format settings, ReFrames : 5 frames
Codec ID : V_MPEG4/ISO/AVC
Duration : 1h 49mn
Bit rate : 5 604 Kbps
Width : 1 280 pixels
Height : 536 pixels
Display aspect ratio : 2.40:1
Frame rate mode : Constant
Frame rate : 25.000 fps
Color space : YUV
Chroma subsampling : 4:2:0
Bit depth : 8 bits
Scan type : Progressive
Bits/(Pixel*Frame) : 0.327
Stream size : 4.20 GiB (83%)
Writing library : x264 core 142 r2453 ea0ca51
Encoding settings : cabac=1 / ref=5 / deblock=1:0:0 / analyse=0x3:0x133 / me=umh / subme=7 / psy=1 / psy_rd=1.00:0.00 / mixed_ref=1 / me_range=16 / chroma_me=1 / trellis=1 / 8x8dct=1 / cqm=0 / deadzone=21,11 / fast_pskip=0 / chroma_qp_offset=-2 / threads=12 / lookahead_threads=2 / sliced_threads=0 / nr=0 / decimate=1 / interlaced=0 / bluray_compat=0 / constrained_intra=0 / bframes=3 / b_pyramid=2 / b_adapt=1 / b_bias=0 / direct=1 / weightb=1 / open_gop=0 / weightp=2 / keyint=250 / keyint_min=25 / scenecut=40 / intra_refresh=0 / rc_lookahead=40 / rc=2pass / mbtree=1 / bitrate=5604 / ratetol=1.0 / qcomp=0.60 / qpmin=0 / qpmax=69 / qpstep=4 / cplxblur=20.0 / qblur=0.5 / ip_ratio=1.40 / aq=1:1.00
Language : English
Default : Yes
Forced : No
Audio #1
ID : 2
Format : AC-3
Format/Info : Audio Coding 3
Mode extension : CM (complete main)
Format settings, Endianness : Big
Codec ID : A_AC3
Duration : 1h 49mn
Bit rate mode : Constant
Bit rate : 384 Kbps
Channel(s) : 6 channels
Channel positions : Front: L C R, Side: L R, LFE
Sampling rate : 48.0 KHz
Bit depth : 16 bits
Compression mode : Lossy
Stream size : 302 MiB (6%)
Language : Russian
Default : Yes
Forced : No
Audio #2
ID : 3
Format : AC-3
Format/Info : Audio Coding 3
Mode extension : CM (complete main)
Format settings, Endianness : Big
Codec ID : A_AC3
Duration : 1h 49mn
Bit rate mode : Constant
Bit rate : 640 Kbps
Channel(s) : 6 channels
Channel positions : Front: L C R, Side: L R, LFE
Sampling rate : 48.0 KHz
Bit depth : 16 bits
Compression mode : Lossy
Stream size : 503 MiB (10%)
Language : English
Default : No
Forced : No
Text
ID : 4
Format : UTF-8
Codec ID : S_TEXT/UTF8
Codec ID/Info : UTF-8 Plain Text
Title : Sub
Language : English
Default : No
Forced : No
Menu
00:00:00.000 : en:00:00:00.000
00:05:20.520 : en:00:05:20.520
00:10:36.520 : en:00:10:36.520
00:16:33.080 : en:00:16:33.080
00:19:57.520 : en:00:19:57.520
00:25:29.800 : en:00:25:29.800
00:33:00.640 : en:00:33:00.640
00:39:24.720 : en:00:39:24.720
00:47:09.800 : en:00:47:09.800
00:51:40.560 : en:00:51:40.560
00:57:51.000 : en:00:57:51.000
01:04:16.360 : en:01:04:16.360
01:13:13.000 : en:01:13:13.000
01:20:26.760 : en:01:20:26.760
01:26:05.200 : en:01:26:05.200
01:33:08.160 : en:01:33:08.160
01:39:34.080 : en:01:39:34.080
01:43:51.760 : en:01:43:51.760
Скриншоты:

Время раздачи: С 08:00 до 23:00, до первых 5-ти скачавших, далее по возможности

[Цитировать]



Показать сообщения:    

Текущее время: 07-Дек 00:51

Часовой пояс: UTC + 3


Вы не можете начинать темы
Вы не можете отвечать на сообщения
Вы не можете редактировать свои сообщения
Вы не можете удалять свои сообщения
Вы не можете голосовать в опросах
Вы не можете прикреплять файлы к сообщениям
Вы не можете скачивать файлы

!ВНИМАНИЕ!
Сайт не предоставляет электронные версии произведений, а занимается лишь коллекционированием и каталогизацией ссылок, присылаемых и публикуемых на форуме нашими читателями. Если вы являетесь правообладателем какого-либо представленного материала и не желаете, чтобы ссылка на него находилась в нашем каталоге, свяжитесь с нами, и мы незамедлительно удалим ее. Файлы для обмена на трекере предоставлены пользователями сайта, и администрация не несет ответственности за их содержание. Просьба не заливать файлы, защищенные авторскими правами, а также файлы нелегального содержания!