[ Сегодня идет свободное скачивание без начисления Download ]


Статистика раздачи
Нет
 
   
 
Top  
 
 
-Малефисента / Maleficent (2014) WEB-DL [H.264/1080p-LQ] [Line]«Не верьте сказкам»- Год выпуска: 2014
Производство: США, Великобритания
Жанр: Фэнтези, приключения, семейный, мелодрама
Режиссер: Роберт Стромберг
Продюсер: Джо Рот, Сара Брэдшоу, Дон Хан
Актеры: Анджелина Джоли, Эль Фаннинг, Шарлто Копли, Сэм Райли, Имелда Стонтон, Джуно Темпл, Лесли Мэнвилл, Брентон Туэйтс, Кеннет Крэнэм, Изобель Моллой
Описание фильма:
Юная волшебница Малефисента вела уединенную жизнь в зачарованном лесу, окруженная сказочными существами, но однажды все изменилось… В её мир вторглись люди, которые принесли с собой разрушение и хаос, и Малефисенте пришлось встать на защиту своих подданных, призвав на помощь могущественные тёмные силы. В пылу борьбы Малефисента наложила страшное заклятие на новорожденную дочь короля, прекрасную Аврору. Но, наблюдая за тем, как растет маленькая принцесса, Малефисента начинает сомневаться в правильности своего поступка — ведь, возможно, именно Аврора может вдохнуть новую жизнь в волшебное лесное царство.
Перевод: Дублированный (Чистый звук)
Субтитры: Отсутствуют
Рейтинг MPAA: PG (рекомендуется присутствие родителей)
Возраст: 12+

Дата мировой премьеры: 28 мая 2014
Дата российской премьеры: 29 мая 2014, «WDSSPR»
Дата выхода DVD/Blu-Ray релиза: 23 сентября 2014, «Уолт Дисней Компани СНГ»
Продолжительность: 01:37:50
Качество видео: WEB-DL [H.264/1080p-LQ]
Видеокодек: MPEG-4 AVC/H.264
Битрейт видео: ~3699 Kbps
Размер кадра: 1916x796 , 23,976 fps
Аудио #1: AC3, 48,0 KHz, 2 ch, 384 Kbps, CBR (Русский, Дубляж)
Аудио #2: AC3, 48,0 KHz, 6 ch, 384 Kbps, CBR (Английский)

Знаете ли вы, что:

• Анджелина Джоли рассказала, что выросла на мультфильмах студии Disney, и в особенности ей нравилась «Спящая красавица» (1959). Она также сказала, что персонаж Малефисенты всегда приводил ее в ужас, но при этом все равно вызывал восхищение.
• Оператором «Малефисенты» стал Дин Семлер, который снимал режиссерскую работу Анджелины Джоли «В краю крови и меда» (2011).
• Первоначально режиссером фильма должен был стать Тим Бёртон.
• Анджелина Джоли призналась, что в гриме и костюме выглядела настолько устрашающе, что не на шутку пугала детей на съемочной площадке. Один ребенок даже сказал: «Мам, пожалуйста, попроси эту злую ведьму не говорить со мной». Одна только дочь Джоли, Вивьен Джоли-Питт, которая играет маленькую принцессу Аврору, не была напугана.
• Джуд Лоу рассматривался на роль короля Стефана.
• Это первый диснеевский фильм для многих актеров, включая Анджелину Джоли, Имелду Стонтон, Шарлто Копли, Брентон Туэйтес, Джуно Темпл, а также для сценариста Пола Дини и Эль Фаннинг.
• В роли маленькой принцессы Авроры снялась Вивьен Джоли-Питт, дочь Анджелины Джоли и Брэда Питта.
• Фильм является режиссерским дебютом Роберта Стромберга.
• Остальные факты на kinopoisk.ru

MediaInfo:

Формат                                   : Matroska
Версия формата                           : Version 2
Размер файла                             : 3,11 Гбайт
Продолжительность                        : 1 ч. 37 м.
Общий поток                              : 4557 Кбит/сек
Название фильма                          : Maleficent (2014)
Дата кодирования                         : UTC 2014-09-05 07:00:03
Программа кодирования                    : mkvmerge v6.9.1 ('Blue Panther') 64bit built on Apr 18 2014 18:23:38
Библиотека кодирования                   : libebml v1.3.0 + libmatroska v1.4.1
Видео
Идентификатор                            : 1
Формат                                   : AVC
Формат/Информация                        : Advanced Video Codec
Профиль формата                          : [url=mailto:High@L4.0]High@L4.0[/url]
Параметр CABAC формата                   : Да
Параметр ReFrames формата                : 5 кадров
Идентификатор кодека                     : V_MPEG4/ISO/AVC
Продолжительность                        : 1 ч. 37 м.
Битрейт                                  : 3699 Кбит/сек
Ширина                                   : 1916 пикселей
Высота                                   : 796 пикселей
Соотношение сторон                       : 2,40:1
Режим частоты кадров                     : Постоянный
Частота кадров                           : 23,976 кадра/сек
Цветовое пространство                    : YUV
Субдискретизация насыщенности            : 4:2:0
Битовая глубина                          : 8 бит
Тип развёртки                            : Прогрессивная
Бит/(Пиксели*Кадры)                      : 0.101
Размер потока                            : 2,53 Гбайт (81%)
Язык                                     : English
Default                                  : Да
Forced                                   : Нет
Основные цвета                           : BT.709
Характеристики трансфера                 : BT.709
Коэффициенты матрицы                     : BT.709
Аудио #1
Идентификатор                            : 2
Формат                                   : AC-3
Формат/Информация                        : Audio Coding 3
Расширение режима                        : CM (complete main)
Параметр Endianness формата              : Big
Идентификатор кодека                     : A_AC3
Продолжительность                        : 1 ч. 37 м.
Вид битрейта                             : Постоянный
Битрейт                                  : 384 Кбит/сек
Каналы                                   : 2 канала
Расположение каналов                     : Front: L R
Частота                                  : 48,0 КГц
Битовая глубина                          : 16 бит
Метод сжатия                             : С потерями
Размер потока                            : 269 Мбайт (8%)
Заголовок                                : Line
Язык                                     : Russian
Default                                  : Да
Forced                                   : Нет
Аудио #2
Идентификатор                            : 3
Формат                                   : AC-3
Формат/Информация                        : Audio Coding 3
Расширение режима                        : CM (complete main)
Параметр Endianness формата              : Big
Идентификатор кодека                     : A_AC3
Продолжительность                        : 1 ч. 37 м.
Вид битрейта                             : Постоянный
Битрейт                                  : 384 Кбит/сек
Каналы                                   : 6 каналов
Расположение каналов                     : Front: L C R, Side: L R, LFE
Частота                                  : 48,0 КГц
Битовая глубина                          : 16 бит
Метод сжатия                             : С потерями
Размер потока                            : 269 Мбайт (8%)
Язык                                     : English
Default                                  : Нет
Forced                                   : Нет
Меню
00:00:00.000                             : en:1
00:03:01.000                             : en:2
00:08:11.000                             : en:3
00:14:01.000                             : en:4
00:19:11.000                             : en:5
00:25:58.000                             : en:6
00:33:10.000                             : en:7
00:38:32.000                             : en:8
00:43:22.000                             : en:9
00:46:57.000                             : en:10
00:51:13.000                             : en:11
00:54:19.000                             : en:12
00:58:38.000                             : en:13
01:01:59.000                             : en:14
01:05:11.000                             : en:15
01:09:57.000                             : en:16
01:15:41.000                             : en:17
01:17:44.000                             : en:18
01:25:44.000                             : en:19
01:28:39.000                             : en:20
Скриншоты:

Время раздачи: 24/7 (до 10 скачавших)

[Цитировать]



Показать сообщения:    

Текущее время: 11-Дек 09:11

Часовой пояс: UTC + 3


Вы не можете начинать темы
Вы не можете отвечать на сообщения
Вы не можете редактировать свои сообщения
Вы не можете удалять свои сообщения
Вы не можете голосовать в опросах
Вы не можете прикреплять файлы к сообщениям
Вы не можете скачивать файлы

!ВНИМАНИЕ!
Сайт не предоставляет электронные версии произведений, а занимается лишь коллекционированием и каталогизацией ссылок, присылаемых и публикуемых на форуме нашими читателями. Если вы являетесь правообладателем какого-либо представленного материала и не желаете, чтобы ссылка на него находилась в нашем каталоге, свяжитесь с нами, и мы незамедлительно удалим ее. Файлы для обмена на трекере предоставлены пользователями сайта, и администрация не несет ответственности за их содержание. Просьба не заливать файлы, защищенные авторскими правами, а также файлы нелегального содержания!