[ Сегодня идет свободное скачивание без начисления Download ]


Статистика раздачи
Нет
 
   
 
Top  
 
 
-Два лика января / The Two Faces of January (2014) HDRip- Год выпуска: 2014
Производство: Великобритания, США, Франция
Жанр: Триллер
Описание фильма: Начало 60-х 20-го века. В Афины приезжает блестящая гламурная пара — харизматичный Честер МакФарланд и его молодая жена Колетта. Во время осмотра Акрополя они знакомятся с юным американским гидом Райдалом. Паре есть что скрывать, когда они видятся снова, Честер просит Райдола помочь избавиться от трупа незнакомца, который якобы напал на него.
Режиссер: Хуссейн Амини
Продюсер: Тим Беван, Эрик Феллнер, Робин Слово, ...
Актеры: Кирстен Данст, Вигго Мортенсен, Оскар Айзек, Дэйзи Беван, Дэвид Уоршофски, Промитеас Алиферопулос, Иигит Озшенер, Сократ Алафоуцос, Никос Мавракис, Озан Тас
Перевод: Одноголосый закадровый, любительский
Озвучка / Автор перевода: datynet

Дата мировой премьеры: 11 февраля 2014
Продолжительность: 01:36:54
Качество видео: HDRip
Видеокодек: Xvid
Битрейт видео: ~1690kbps
Размер кадра: 720x304
Аудиокодек: MP3
Битрейт аудио: 192kbps
Сэмпл: Скачать

MI

Общее
Полное имя : The.Two.Faces.of.January.2014.HDRip.avi
Формат : AVI
Формат/Информация : Audio Video Interleave
Размер файла : 1,28 Гбайт
Продолжительность : 1 ч. 36 м.
Общий поток : 1892 Кбит/сек
Библиотека кодирования : VirtualDub build 34753/release
Видео
Идентификатор : 0
Формат : MPEG-4 Visual
Профиль формата : Advanced Simple@L5
Параметр BVOP формата : Да
Параметр QPel формата : Нет
Параметр GMC формата : Без точки перехода
Параметр матрицы формата : Default (H.263)
Идентификатор кодека : XVID
Идентификатор кодека/Подсказка : XviD
Продолжительность : 1 ч. 36 м.
Битрейт : 1690 Кбит/сек
Ширина : 720 пикселей
Высота : 304 пикселя
Соотношение сторон : 2,35:1
Частота кадров : 23,976 кадра/сек
Цветовое пространство : YUV
Субдискретизация насыщенности : 4:2:0
Битовая глубина : 8 бит
Тип развёртки : Прогрессивная
Метод сжатия : С потерями
Бит/(Пиксели*Кадры) : 0.322
Размер потока : 1,14 Гбайт (89%)
Библиотека кодирования : XviD 64
Аудио
Идентификатор : 1
Формат : MPEG Audio
Версия формата : Version 1
Профиль формата : Layer 3
Идентификатор кодека : 55
Идентификатор кодека/Подсказка : MP3
Продолжительность : 1 ч. 36 м.
Вид битрейта : Постоянный
Битрейт : 192 Кбит/сек
Каналы : 2 канала
Частота : 44,1 КГц
Метод сжатия : С потерями
Размер потока : 133 Мбайт (10%)
Выравнивание : Разделение по промежуткам
Продолжительность промежутка : 42 мс. (1,00 видеокадр)
Время предзагрузки промежутка : 500 мс.
Скриншоты:

Время раздачи: с 09:00 до 23:30

[Цитировать]



Показать сообщения:    

Текущее время: 10-Дек 00:19

Часовой пояс: UTC + 3


Вы не можете начинать темы
Вы не можете отвечать на сообщения
Вы не можете редактировать свои сообщения
Вы не можете удалять свои сообщения
Вы не можете голосовать в опросах
Вы не можете прикреплять файлы к сообщениям
Вы не можете скачивать файлы

!ВНИМАНИЕ!
Сайт не предоставляет электронные версии произведений, а занимается лишь коллекционированием и каталогизацией ссылок, присылаемых и публикуемых на форуме нашими читателями. Если вы являетесь правообладателем какого-либо представленного материала и не желаете, чтобы ссылка на него находилась в нашем каталоге, свяжитесь с нами, и мы незамедлительно удалим ее. Файлы для обмена на трекере предоставлены пользователями сайта, и администрация не несет ответственности за их содержание. Просьба не заливать файлы, защищенные авторскими правами, а также файлы нелегального содержания!