[ Сегодня идет свободное скачивание без начисления Download ]


Статистика раздачи
Нет
 
   
 
Top  
 
 
-Безжалостные люди / Ruthless People (1986) WEB-DL
«Sam Stone's wife has just been kidnapped... And he doesn't want her back!»
- Год выпуска: 1986
Производство: США / Silver Screen Partners II, Touchstone Pictures
Жанр: Комедия, криминал
Описание фильма:
Самой заветной мечтой Сэма Стоуна было избавиться от своей сварливой женушки. И вот его день настал: жену похитили с целью получить кругленькую сумму. Естественно, что у Сэма даже в мыслях нет расставаться со своими кровными в обмен на «любимую» супругу. Но он еще не подозревает, что его жена обладает способностью наладить дружеские отношения даже с бандитами.
Режиссер: Джим Абрахамс, Дэвид Цукер, Джерри Цукер
Продюсер: Майкл Пейсер, Джоэнна Ланкастер, Ричард Вагнер
Актеры: Дэнни ДеВито, Бетт Мидлер, Джадж Райнхолд, Хелен Слейтер, Анита Моррис, Билл Пуллман, Уильям Дж. Шиллинг, Арт Эванс, Кларенс Фелдер, Дж.Э. Фримен
Язык: Русский, украинский, английский
Перевод: Дублированный, Многоголосый закадровый (профессиональный), Двухголосый закадровый (профессиональный), Одноголосый закадровый (авторский)
Вид субтитров: Вшитые отключаемые
Язык субтитров: Русский, английский (SDH)

Дата мировой премьеры: 27 июня 1986
Дата выхода DVD релиза: 2 августа 2011, «Уолт Дисней Компани СНГ»
Рейтинг MPAA: R
Возраст: 16+
Продолжительность: 01:33:59
Качество видео: WEB-DL [HDclub]
Видео: MPEG-4 AVC/H.264, 1280x692 (1.85:1), ~4092 kbps (0.193 bit/pixel), 23.976 fps
Аудио 1: AC3 2.0, 192 kbps, 48 kHz, 16-bit [Русский - дублированный «ВГТРК»]
Аудио 2: AC3 5.1, 448 kbps, 48 kHz, 16-bit [Русский - многоголосый закадровый «ТВ-Центр»]
Аудио 3: AC3 2.0, 192 kbps, 48 kHz, 16-bit [Русский - многоголосый закадровый «iTunes Russia»]
Аудио 4: AC3 2.0, 192 kbps, 48 kHz, 16-bit [Русский - двухголосый закадровый]
Аудио 5: AC3 5.1, 448 kbps, 48 kHz, 16-bit [Русский - одноголосый закадровый «А. Михалев / поздний»]
Аудио 6: AC3 2.0, 192 kbps, 48 kHz, 16-bit [Русский - одноголосый закадровый «А. Михалев / ранний»]
Аудио 7: AC3 2.0, 192 kbps, 48 kHz, 16-bit [Русский - одноголосый закадровый «А. Михалев / самый ранний»]
Аудио 8: AC3 5.1, 384 kbps, 48 kHz, 16-bit [Русский - одноголосый закадровый «В. Завгородний»]
Аудио 9: AC3 2.0, 192 kbps, 48 kHz, 16-bit [Русский - одноголосый закадровый «Л. Володарский»]
Аудио 10: AC3 2.0, 192 kbps, 48 kHz, 16-bit [Украинский - многоголосый закадровый «Новый Канал»]
Аудио 11: AC3 5.1, 384 kbps, 48 kHz, 16-bit [Английский - оригинал]

Отчёт MediaInfo

Полное имя : D:\Безжалостные.люди-Ruthless.People.(1986).WEB-DL.[720p].mkv
Формат : Matroska
Версия формата : Version 2
Размер файла : 4,76 Гбайт
Продолжительность : 1 ч. 33 м.
Общий поток : 7244 Кбит/сек
Название фильма : Ruthless People (1986)
Дата кодирования : UTC 2014-09-09 11:41:06
Программа кодирования : mkvmerge v5.7.0 ('The Whirlwind') built on Aug 7 2012 14:11:40
Библиотека кодирования : libebml v1.2.3 + libmatroska v1.3.0
Attachment : Yes
Видео
Идентификатор : 1
Формат : AVC
Формат/Информация : Advanced Video Codec
Профиль формата : High@L3.1
Параметр CABAC формата : Нет
Параметр ReFrames формата : 2 кадра
Идентификатор кодека : V_MPEG4/ISO/AVC
Продолжительность : 1 ч. 33 м.
Битрейт : 4092 Кбит/сек
Ширина : 1280 пикселей
Высота : 692 пикселя
Соотношение сторон : 1,85:1
Режим частоты кадров : Постоянный
Частота кадров : 23,976 кадра/сек
Цветовое пространство : YUV
Субдискретизация насыщенности : 4:2:0
Битовая глубина : 8 бит
Тип развёртки : Прогрессивная
Бит/(Пиксели*Кадры) : 0.193
Размер потока : 2,69 Гбайт (56%)
Заголовок : Безжалостные.люди-Ruthless.People.(1986).WEB-DL.[720p]
Язык : English
Default : Да
Forced : Нет
Основные цвета : BT.709
Характеристики трансфера : BT.709
Коэффициенты матрицы : BT.709
Аудио #1
Идентификатор : 2
Формат : AC-3
Формат/Информация : Audio Coding 3
Расширение режима : CM (complete main)
Параметр Endianness формата : Big
Идентификатор кодека : A_AC3
Продолжительность : 1 ч. 33 м.
Вид битрейта : Постоянный
Битрейт : 192 Кбит/сек
Каналы : 2 канала
Расположение каналов : Front: L R
Частота : 48,0 КГц
Битовая глубина : 16 бит
Метод сжатия : С потерями
Размер потока : 129 Мбайт (3%)
Заголовок : AC3 2.0 / 192 kbps / Dub (ВГТРК)
Язык : Russian
Default : Да
Forced : Нет
Аудио #2
Идентификатор : 3
Формат : AC-3
Формат/Информация : Audio Coding 3
Расширение режима : CM (complete main)
Параметр Endianness формата : Big
Идентификатор кодека : A_AC3
Продолжительность : 1 ч. 33 м.
Вид битрейта : Постоянный
Битрейт : 448 Кбит/сек
Каналы : 6 каналов
Расположение каналов : Front: L C R, Side: L R, LFE
Частота : 48,0 КГц
Битовая глубина : 16 бит
Метод сжатия : С потерями
Размер потока : 301 Мбайт (6%)
Заголовок : AC3 5.1 / 448 kbps / MVO (ТВ-Центр)
Язык : Russian
Default : Нет
Forced : Нет
Аудио #3
Идентификатор : 4
Формат : AC-3
Формат/Информация : Audio Coding 3
Расширение режима : CM (complete main)
Параметр Endianness формата : Big
Идентификатор кодека : A_AC3
Продолжительность : 1 ч. 33 м.
Вид битрейта : Постоянный
Битрейт : 192 Кбит/сек
Каналы : 2 канала
Расположение каналов : Front: L R
Частота : 48,0 КГц
Битовая глубина : 16 бит
Метод сжатия : С потерями
Размер потока : 129 Мбайт (3%)
Заголовок : AC3 2.0 / 192 kbps / MVO (iTunes Russia)
Язык : Russian
Default : Нет
Forced : Нет
Аудио #4
Идентификатор : 5
Формат : AC-3
Формат/Информация : Audio Coding 3
Расширение режима : CM (complete main)
Параметр Endianness формата : Big
Идентификатор кодека : A_AC3
Продолжительность : 1 ч. 33 м.
Вид битрейта : Постоянный
Битрейт : 192 Кбит/сек
Каналы : 2 канала
Расположение каналов : Front: L R
Частота : 48,0 КГц
Битовая глубина : 16 бит
Метод сжатия : С потерями
Размер потока : 129 Мбайт (3%)
Заголовок : AC3 2.0 / 192 kbps / DVO
Язык : Russian
Default : Нет
Forced : Нет
Аудио #5
Идентификатор : 6
Формат : AC-3
Формат/Информация : Audio Coding 3
Расширение режима : CM (complete main)
Параметр Endianness формата : Big
Идентификатор кодека : A_AC3
Продолжительность : 1 ч. 33 м.
Вид битрейта : Постоянный
Битрейт : 448 Кбит/сек
Каналы : 6 каналов
Расположение каналов : Front: L C R, Side: L R, LFE
Частота : 48,0 КГц
Битовая глубина : 16 бит
Метод сжатия : С потерями
Размер потока : 301 Мбайт (6%)
Заголовок : AC3 5.1 / 448 kbps / AVO (А. Михалев / поздний перевод)
Язык : Russian
Default : Нет
Forced : Нет
Аудио #6
Идентификатор : 7
Формат : AC-3
Формат/Информация : Audio Coding 3
Расширение режима : CM (complete main)
Параметр Endianness формата : Big
Идентификатор кодека : A_AC3
Продолжительность : 1 ч. 33 м.
Вид битрейта : Постоянный
Битрейт : 192 Кбит/сек
Каналы : 2 канала
Расположение каналов : Front: L R
Частота : 48,0 КГц
Битовая глубина : 16 бит
Метод сжатия : С потерями
Размер потока : 129 Мбайт (3%)
Заголовок : AC3 2.0 / 192 kbps / AVO (А. Михалев / ранний перевод)
Язык : Russian
Default : Нет
Forced : Нет
Аудио #7
Идентификатор : 8
Формат : AC-3
Формат/Информация : Audio Coding 3
Расширение режима : CM (complete main)
Параметр Endianness формата : Big
Идентификатор кодека : A_AC3
Продолжительность : 1 ч. 33 м.
Вид битрейта : Постоянный
Битрейт : 192 Кбит/сек
Каналы : 2 канала
Расположение каналов : Front: L R
Частота : 48,0 КГц
Битовая глубина : 16 бит
Метод сжатия : С потерями
Размер потока : 129 Мбайт (3%)
Заголовок : AC3 2.0 / 192 kbps / AVO (А. Михалев / самый ранний перевод)
Язык : Russian
Default : Нет
Forced : Нет
Аудио #8
Идентификатор : 9
Формат : AC-3
Формат/Информация : Audio Coding 3
Расширение режима : CM (complete main)
Параметр Endianness формата : Big
Идентификатор кодека : A_AC3
Продолжительность : 1 ч. 33 м.
Вид битрейта : Постоянный
Битрейт : 384 Кбит/сек
Каналы : 6 каналов
Расположение каналов : Front: L C R, Side: L R, LFE
Частота : 48,0 КГц
Битовая глубина : 16 бит
Метод сжатия : С потерями
Размер потока : 258 Мбайт (5%)
Заголовок : AC3 5.1 / 384 kbps / AVO (В. Завгородний)
Язык : Russian
Default : Нет
Forced : Нет
Аудио #9
Идентификатор : 10
Формат : AC-3
Формат/Информация : Audio Coding 3
Расширение режима : CM (complete main)
Параметр Endianness формата : Big
Идентификатор кодека : A_AC3
Продолжительность : 1 ч. 33 м.
Вид битрейта : Постоянный
Битрейт : 192 Кбит/сек
Каналы : 2 канала
Расположение каналов : Front: L R
Частота : 48,0 КГц
Битовая глубина : 16 бит
Метод сжатия : С потерями
Размер потока : 129 Мбайт (3%)
Заголовок : AC3 2.0 / 192 kbps / AVO (Л. Володарский)
Язык : Russian
Default : Нет
Forced : Нет
Аудио #10
Идентификатор : 11
Формат : AC-3
Формат/Информация : Audio Coding 3
Расширение режима : CM (complete main)
Параметр Endianness формата : Big
Идентификатор кодека : A_AC3
Продолжительность : 1 ч. 33 м.
Вид битрейта : Постоянный
Битрейт : 192 Кбит/сек
Каналы : 2 канала
Расположение каналов : Front: L R
Частота : 48,0 КГц
Битовая глубина : 16 бит
Метод сжатия : С потерями
Размер потока : 129 Мбайт (3%)
Заголовок : AC3 2.0 / 192 kbps / MVO (Новый канал)
Язык : Ukrainian
Default : Нет
Forced : Нет
Аудио #11
Идентификатор : 12
Формат : AC-3
Формат/Информация : Audio Coding 3
Расширение режима : CM (complete main)
Параметр Endianness формата : Big
Идентификатор кодека : A_AC3
Продолжительность : 1 ч. 33 м.
Вид битрейта : Постоянный
Битрейт : 384 Кбит/сек
Каналы : 6 каналов
Расположение каналов : Front: L C R, Side: L R, LFE
Частота : 48,0 КГц
Битовая глубина : 16 бит
Метод сжатия : С потерями
Размер потока : 258 Мбайт (5%)
Заголовок : AC3 5.1 / 384 kbps / Original
Язык : English
Default : Нет
Forced : Нет
Текст #1
Идентификатор : 13
Формат : UTF-8
Идентификатор кодека : S_TEXT/UTF8
Идентификатор кодека/Информация : UTF-8 Plain Text
Заголовок : Full
Язык : Russian
Default : Нет
Forced : Нет
Текст #2
Идентификатор : 14
Формат : UTF-8
Идентификатор кодека : S_TEXT/UTF8
Идентификатор кодека/Информация : UTF-8 Plain Text
Заголовок : SDH
Язык : English
Default : Нет
Forced : Нет
Меню
00:00:00.000 : en:1. Opening Titles/The Plan
00:08:39.000 : en:2. The Ruthless Get Rich
00:13:46.000 : en:3. Perfect!
00:23:13.000 : en:4. The Drop
00:32:54.000 : en:5. Birthday Wish
00:43:45.000 : en:6. She's Still Alive
00:48:26.000 : en:7. The Setup
00:53:07.000 : en:8. Making the Sale
01:03:39.000 : en:9. Gotta Get Her Back
01:15:07.000 : en:10. She Really Was Kidnapped
01:22:20.000 : en:11. Time to Pay Up
01:28:05.000 : en:12. She's Back/End Credits
Скриншоты:

Время раздачи: 24/7 (до 10 скачавших)

[Цитировать]



Показать сообщения:    

Текущее время: 11-Дек 14:56

Часовой пояс: UTC + 3


Вы не можете начинать темы
Вы не можете отвечать на сообщения
Вы не можете редактировать свои сообщения
Вы не можете удалять свои сообщения
Вы не можете голосовать в опросах
Вы не можете прикреплять файлы к сообщениям
Вы не можете скачивать файлы

!ВНИМАНИЕ!
Сайт не предоставляет электронные версии произведений, а занимается лишь коллекционированием и каталогизацией ссылок, присылаемых и публикуемых на форуме нашими читателями. Если вы являетесь правообладателем какого-либо представленного материала и не желаете, чтобы ссылка на него находилась в нашем каталоге, свяжитесь с нами, и мы незамедлительно удалим ее. Файлы для обмена на трекере предоставлены пользователями сайта, и администрация не несет ответственности за их содержание. Просьба не заливать файлы, защищенные авторскими правами, а также файлы нелегального содержания!