[ Сегодня идет свободное скачивание без начисления Download ]


Статистика раздачи
Нет
 
   
 
Top  
 
 
-Пластик / Plastic (2014) BDRip- Год выпуска: 2014
Производство: Великобритания - Gateway Films
Жанр: Боевик, криминал, реальные события
Перевод: Дублированный |iTunes Russia|
Субтитры: Вшитые отключаемые
Язык субтитров: Английский
Режиссер: Джулиан Джилби / Julian Gilbey
Актеры: Эдвард Спелирс, Уилл Поултер, Элфи Оуэн-Аллен, Себастьян Де Соуза, Эмма Ригби, Томас Кречман, Грэм МакТавиш, Мем Ферда, Майкл Биспинг, Чарли Палмер Меркелл
Описание фильма:
Фильм основан на реальной истории. Банде друзей удалось проникнуть в одну из самых больших в мире компаний, которая работает с кредитными картами. Им удается провернуть одну из самых дерзких краж в британской истории.

Дата мировой премьеры: 30 апреля 2014
Дата российской премьеры: 19 июня 2014, «Люксор»
Дата выхода DVD релиза: 24 июля 2014, «CD Land»
Продолжительность: 01:41:57
Качество видео: BDRip [Profile LQ]
Видеокодек: MPEG-4 AVC/H.264
Видео: H264, 8437 Кбит/с, 1920x800, 24.000 кадр/с
Аудио #1: Русский: AC3, 5.1, 448 Кбит/с, 48kHz, 16 bit
Аудио #2: Английский: DTS, 5.1, 768 Кбит/с, 48 kHz, 24 bit
Сохранены оригинальные чаптеры как на Blu-Ray

MediaInfo:

Общее
Уникальный идентификатор : 252025086130324725171619575029131831926 (0xBD9A441954AB90B8B01337AE3206EA76)
Полное имя : D:\Video\Plastic.BDRip.1080p..mkv
Формат : Matroska
Версия формата : Version 4 / Version 2
Размер файла : 6,87 Гбайт
Продолжительность : 1 ч. 41 м.
Общий поток : 9648 Кбит/сек
Дата кодирования : UTC 2014-09-10 10:32:18
Программа кодирования : mkvmerge v6.1.0 ('Old Devil') built on Mar 4 2013 09:10:42
Библиотека кодирования : libebml v1.3.0 + libmatroska v1.4.0
Видео
Идентификатор : 1
Формат : AVC
Формат/Информация : Advanced Video Codec
Профиль формата : High@L4.1
Параметр CABAC формата : Да
Параметр ReFrames формата : 5 кадров
Идентификатор кодека : V_MPEG4/ISO/AVC
Продолжительность : 1 ч. 41 м.
Битрейт : 8437 Кбит/сек
Ширина : 1920 пикселей
Высота : 800 пикселей
Соотношение сторон : 2,40:1
Частота кадров : 24,000 кадра/сек
Цветовое пространство : YUV
Субдискретизация насыщенности : 4:2:0
Битовая глубина : 8 бит
Тип развёртки : Прогрессивная
Бит/(Пиксели*Кадры) : 0.229
Размер потока : 5,88 Гбайт (86%)
Библиотека кодирования : x264 core 142 r2453 ea0ca51
Настройки программы : cabac=1 / ref=5 / deblock=1:0:0 / analyse=0x3:0x133 / me=umh / subme=8 / psy=1 / psy_rd=1.00:0.00 / mixed_ref=1 / me_range=16 / chroma_me=1 / trellis=1 / 8x8dct=1 / cqm=0 / deadzone=21,11 / fast_pskip=0 / chroma_qp_offset=-2 / threads=12 / lookahead_threads=2 / sliced_threads=0 / nr=0 / decimate=1 / interlaced=0 / bluray_compat=0 / constrained_intra=0 / bframes=3 / b_pyramid=2 / b_adapt=2 / b_bias=0 / direct=3 / weightb=1 / open_gop=0 / weightp=2 / keyint=250 / keyint_min=24 / scenecut=40 / intra_refresh=0 / rc_lookahead=50 / rc=2pass / mbtree=1 / bitrate=8437 / ratetol=1.0 / qcomp=0.60 / qpmin=0 / qpmax=69 / qpstep=4 / cplxblur=20.0 / qblur=0.5 / ip_ratio=1.40 / aq=1:1.00
Язык : English
Default : Да
Forced : Нет
Аудио #1
Идентификатор : 2
Формат : AC-3
Формат/Информация : Audio Coding 3
Расширение режима : CM (complete main)
Идентификатор кодека : A_AC3
Продолжительность : 1 ч. 41 м.
Вид битрейта : Постоянный
Битрейт : 448 Кбит/сек
Каналы : 6 каналов
Расположение каналов : Front: L C R, Side: L R, LFE
Частота : 48,0 КГц
Битовая глубина : 16 бит
Метод сжатия : С потерями
Размер потока : 327 Мбайт (5%)
Заголовок : Дублированное [Лицензия]
Язык : Russian
Default : Да
Forced : Нет
Аудио #2
Идентификатор : 3
Формат : DTS
Формат/Информация : Digital Theater Systems
Идентификатор кодека : A_DTS
Продолжительность : 1 ч. 41 м.
Вид битрейта : Постоянный
Битрейт : 755 Кбит/сек
Каналы : 6 каналов
Расположение каналов : Front: L C R, Side: L R, LFE
Частота : 48,0 КГц
Битовая глубина : 24 бит
Метод сжатия : С потерями
Размер потока : 550 Мбайт (8%)
Язык : English
Default : Нет
Forced : Нет
Текст
Идентификатор : 4
Формат : UTF-8
Идентификатор кодека : S_TEXT/UTF8
Идентификатор кодека/Информация : UTF-8 Plain Text
Язык : English
Default : Нет
Forced : Нет
Меню
00:00:00.000 : en:00:00:00.000
00:07:26.917 : en:00:07:26.917
00:16:18.625 : en:00:16:18.625
00:26:26.708 : en:00:26:26.708
00:33:36.125 : en:00:33:36.125
00:41:20.292 : en:00:41:20.292
00:50:39.750 : en:00:50:39.750
00:58:34.458 : en:00:58:34.458
01:04:23.208 : en:01:04:23.208
01:14:56.708 : en:01:14:56.708
01:21:30.833 : en:01:21:30.833
01:32:08.208 : en:01:32:08.208

Рецензия:

Человек всегда верит в чудо. Особенно, когда нажимает на банкомате кнопку «Запрос баланса».
Видимо, какая-то магическая сила заставила посмотреть меня криминальную историю о группе молодых воров под названием «Пластик». Люди, работавшие над картиной, для меня все новы, включая режиссера картины, а так же всех главных героев. Сама история, было сразу ясно, что будет шаблонной, слизанной с множества популярных картин в таком жанре. Единственное, что подкупило, это то, что фильм снят по реальным событиям, как было указано в синопсисе.
«Пластик» рассказывает нам о группе из четырех парней, учащихся в колледже, и параллельно с этим обманывающих взрослых богатых дядек, воруя с их кредитных карт деньги. Позже друзья попадают на крючок к одному криминальному парню, который ни с того ни с сего решает, что они должны ему 2 миллиона фунтов стерлингов (фильм ведь английский), и под угрозой виртуальной расправы они решаются на более крупные преступления.
Сюжет, если честно, меня разочаровал. Да, начало смотрелось весьма интересно. Несколько довольно занятных способов, как наполнить свои карманы чужими деньгами от группы этих молодых людей мне понравились. Позже их криминальные ухищрения уже походили на высосанные из пальца придуманные истории. Особенно на этом фоне не убедительно смотрелось заявление о том, что фильм снят по истории, произошедшей на самом деле. Я поверю, что что-то такое и было, но в 20% от всего, что показано нам в фильме. Любовная история здесь тоже была никудышней. Не хочется вдаваться в подробности всех любовных переплетений, но романтическая линия этой криминальной картине на пользу не пошла.
Что касается главных героев, и сами актеры и их персонажи оказались мне по душе. Все четыре героя подобрались абсолютно разные и на любой вкус, как на внешность, так и на характер. Особенно порадовал Уилл Поултер, полюбившийся мне после своей прекрасной роли стеснительного парня в «Мы — Миллеры». Здесь он был совсем в другом образе, но не менее обаятельный! Остальные актеры были тоже весьма харизматичны, и каждый по своему чем-то привлекал. Даже Элфи Оуэн-Аллен, который выступил здесь в роли отрицательного персонажа, был весьма интересен на экране и сумел заставить меня сопереживать. Украшением для этого разношерстного квартета стала Эмма Ригби. И, хотя я скорее всего нашел бы другую актрису для этой роли, готов признаться, что от ее пышных форм, особенно в купальнике, очень трудно оторвать свой взгляд.
Хотя и в отсутствие Эммы на экране с превеликим удовольствием можно было полюбоваться хорошими панорамными видами окрестностей Майами и просто красивыми природными ландшафтами. В общем, со стороны красоты просматриваемой картинки, мне фильм запомнился яркими, позитивными и летними образами. Для моих глаз видеоряд был приятен.
Подводя итог всему выше написанному, скажу — в целом мне фильм понравился! Конечно, не шедевр, возможно даже во многом вторичный продукт, похожий на многих своих хитовых предшественников, но что-то и свое интресное в этой картине тоже было. Хорошие актеры, хорошие пейзажи, популярная идея легких денег — все это сделало просмотр фильма непринужденным и приятным. Многого от фильма ждать не стоит, но как легкое кино на вечер «Пластик» вполне себе годится. Всем приятного просмотра!
7 из 10
Скриншоты: Время раздачи: с 10:00 до 20:00 (GMT+2) - до 10 скачавшихНе забываем говорить

[Цитировать]



Показать сообщения:    

Текущее время: 10-Дек 17:44

Часовой пояс: UTC + 3


Вы не можете начинать темы
Вы не можете отвечать на сообщения
Вы не можете редактировать свои сообщения
Вы не можете удалять свои сообщения
Вы не можете голосовать в опросах
Вы не можете прикреплять файлы к сообщениям
Вы не можете скачивать файлы

!ВНИМАНИЕ!
Сайт не предоставляет электронные версии произведений, а занимается лишь коллекционированием и каталогизацией ссылок, присылаемых и публикуемых на форуме нашими читателями. Если вы являетесь правообладателем какого-либо представленного материала и не желаете, чтобы ссылка на него находилась в нашем каталоге, свяжитесь с нами, и мы незамедлительно удалим ее. Файлы для обмена на трекере предоставлены пользователями сайта, и администрация не несет ответственности за их содержание. Просьба не заливать файлы, защищенные авторскими правами, а также файлы нелегального содержания!